请选择 进入手机版 | 继续访问电脑版

4k蓝光原盘高清论坛

 找回密码
 立即注册
搜索
热搜: 活动 交友 discuz
查看: 1|回复: 0

八比特圣诞 8-Bit.Christmas.2021.2160p.HMAX.WEB-DL.DDP5.1.Atmos.DV.MP4.x265-DVSUX ...

[复制链接]

888

主题

888

帖子

2664

积分

超级版主

Rank: 8Rank: 8

积分
2664
发表于 昨天 09:11 | 显示全部楼层 |阅读模式
八比特圣诞 8-Bit.Christmas.2021.2160p.HMAX.WEB-DL.DDP5.1.Atmos.DV.MP4.x265-DVSUX 12.7                                                                                                                                                                              -->
[quote]帖子完整标题:八比特圣诞 8-Bit.Christmas.2021.2160p.HMAX.WEB-DL.DDP5.1.Atmos.DV.MP4.x265-DVSUX 12.78GB[/code]





◎译  名 八比特圣诞/8-Bit Christmas
◎片  名 8 Bit Christmas
◎年  代 2021
◎产  地 美国
◎类  别 喜剧 / 家庭
◎语  言 英语
◎上映日期 2021-11-24(美国网络)
◎豆瓣评分 /10 from 0 users
◎ 
◎导  演 迈克尔·道斯 Michael Dowse
◎编  剧 Kevin Jakubowski Kevin Jakubowski
◎主  演 尼尔·帕特里克·哈里斯 Neil Patrick Harris
     琼·黛安·拉斐尔 June Diane Raphael
     斯蒂夫·扎恩 Steve Zahn
     赛勒斯·阿诺德 Cyrus Arnold
     温斯洛·费格雷 Winslow Fegley
     桑蒂诺·巴纳德 Santino Barnard
     雅各布·拉瓦尔 Jacob Laval
     丹妮埃拉·伯尔冈 Danielle Bourgon
     大卫·麦金尼斯 David MacInnis
     迈克尔·戴森 Michael Dyson
     Kevin Dennis Kevin Dennis
      William Poulin

◎标  签 2021 | 小霸王 | 喜剧 | WK | NewCast | M美国 | D迈克尔·道斯

◎简  介

  新线影业开发的喜剧片[八比特圣诞](8-Bit Christmas,暂译)已经开拍。影片由尼尔·帕特里克·哈里斯、温斯洛·费格雷、琼·黛安·拉斐尔、斯蒂夫·扎恩主演,迈克尔·道斯([冰球坏小子])执导,凯文·雅库波斯基操刀剧本。
  
  该片根据凯文·雅库波斯基撰写的同名小说改编,故事以20世纪80年代末的芝加哥郊区为背景,讲述了10岁的杰克·多伊尔(费格雷饰)为了得到最好、最新的圣诞电子游戏开始艰难的挑战。哈里斯扮演成年后的杰克·多伊尔,同时也担任该片旁白。拉斐尔和扎恩饰演杰克·多伊尔小时候的父母凯西和约翰
[quote]Video
ID             : 1
Format           : HEVC
Format/Info          : High Efficiency Video Coding
Format profile         : Main @Main
HDR format           : Dolby Vision, Version 1.0, dvhe.05.06, BL+RPU
Codec ID           : dvhe
Codec ID/Info          : High Efficiency Video Coding with Dolby Vision
Duration           : 1 h 37 min
Bit rate           : 17.9 Mb/s
Width            : 3 840 pixels
Height           : 2 160 pixels
Display aspect ratio       : 16:9
Frame rate mode        : Constant
Frame rate           : 23.976 (24000/1001/189150) FPS
Color space          : YUV
Chroma subsampling       : 4:2:0
Bit depth          : 10 bits
Bits/(Pixel*Frame)       : 0.090
Stream size          : 12.3 GiB (96%)
Writing library        : x265 3.4hy:[Linux][GCC 7.5.0][64 bit] 10bit
Encoding settings        : cpuid=1111039 / frame-threads=6 / no-wpp / no-pmode / no-pme / no-psnr / no-ssim / log-level=2 / input-csp=1 / input-res=3840x2160 / interlace=0 / total-frames=0 / level-idc=0 / high-tier=1 / uhd-bd=0 / ref=4 / no-allow-non-conformance / repeat-headers / annexb / aud / hrd / info / hash=0 / no-temporal-layers / no-open-gop / min-keyint=96 / keyint=96 / gop-lookahead=0 / bframes=4 / b-adapt=2 / b-pyramid / bframe-bias=0 / rc-lookahead=25 / lookahead-slices=4 / scenecut=40 / hist-scenecut=0 / radl=0 / no-splice / no-intra-refresh / ctu=64 / min-cu-size=8 / rect / no-amp / max-tu-size=32 / tu-inter-depth=1 / tu-intra-depth=1 / limit-tu=0 / rdoq-level=2 / dynamic-rd=0.00 / no-ssim-rd / signhide / no-tskip / nr-intra=0 / nr-inter=0 / no-constrained-intra / strong-intra-smoothing / max-merge=3 / limit-refs=3 / limit-modes / me=3 / subme=3 / merange=57 / temporal-mvp / no-frame-dup / no-hme / weightp / no-weightb / no-analyze-src-pics / deblock=0:0 / sao / no-sao-non-deblock / rd=4 / selective-sao=4 / no-early-skip / rskip / no-fast-intra / no-tskip-fast / no-cu-lossless / no-b-intra / no-splitrd-skip / rdpenalty=0 / psy-rd=2.00 / psy-rdoq=1.00 / no-rd-refine / no-lossless / cbqpoffs=0 / crqpoffs=3 / rc=abr / bitrate=18000 / qcomp=0.60 / qpstep=4 / stats-write=0 / stats-read=2 / cplxblur=20.0 / qblur=0.5 / vbv-maxrate=24500 / vbv-bufsize=24500 / vbv-init=0.6 / vbv-end=0.6 / vbv-end-fr-adj=0.0 / ipratio=1.40 / pbratio=1.30 / aq-mode=2 / aq-strength=1.00 / cutree / zone-count=0 / no-strict-cbr / qg-size=32 / no-rc-grain / qpmax=69 / qpmin=0 / no-const-vbv / sar=1 / overscan=0 / videoformat=5 / range=1 / colorprim=2 / transfer=2 / colormatrix=2 / chromaloc=0 / display-window=0 / cll=0,0 / min-luma=0 / max-luma=1023 / log2-max-poc-lsb=8 / vui-timing-info / vui-hrd-info / no-concatenation / slices=1 / no-opt-qp-pps / no-opt-ref-list-length-pps / no-multi-pass-opt-rps / scenecut-bias=0.05 / hist-threshold=0.01 / no-opt-cu-delta-qp / no-aq-motion / no-hdr10 / no-hdr10-opt / no-dhdr10-opt / no-idr-recovery-sei / analysis-reuse-level=0 / analysis-save-reuse-level=0 / analysis-load-reuse-level=0 / scale-factor=0 / refine-intra=0 / refine-inter=0 / refine-mv=1 / refine-ctu-distortion=0 / no-limit-sao / ctu-info=0 / no-lowpass-dct / refine-analysis-type=0 / copy-pic=1 / max-ausize-factor=1.0 / no-dynamic-refine / no-single-sei / no-hevc-aq / no-svt / no-field / qp-adaptation-range=1.00 / no-scenecut-aware-qpconformance-window-offsets / right=0 / bottom=0 / decoder-max-rate=0
Default            : Yes
Alternate group        : 1
Encoded date         : UTC 2021-11-24 10:14:47
Tagged date          : UTC 2021-11-24 10:16:17
Color range          : Full
Codec configuration box      : hvcC+dvcC

Audio
ID             : 2
Format           : E-AC-3 JOC
Format/Info          : Enhanced AC-3 with Joint Object Coding
Commercial name        : Dolby Digital Plus with Dolby Atmos
Codec ID           : ec-3
Duration           : 1 h 37 min
Bit rate mode          : Constant
Bit rate           : 768 kb/s
Maximum bit rate         : 811 kb/s
Channel(s)           : 6 channels
Channel layout         : L R C LFE Ls Rs
Sampling rate          : 48.0 kHz
Frame rate           : 31.250 FPS (1536 SPF)
Compression mode         : Lossy
Stream size          : 537 MiB (4%)
Title            : English
Language           : English
Service kind         : Complete Main
Default            : Yes
Alternate group        : 1
Tagged date          : UTC 2021-11-24 10:16:17
Complexity index         : Not present / 16
Number of dynamic objects      : 15
Bed channel count        : 1 channel
Bed channel configuration      : LFE

Text #1
ID             : 3
Format           : Timed Text
Codec ID           : tx3g
Duration           : 1 h 31 min
Bit rate mode          : Variable
Bit rate           : 107 b/s
Stream size          : 71.8 KiB (0%)
Title            : English
Language           : English
Forced           : No
Encoded date         : UTC 2021-11-24 10:16:16
Tagged date          : UTC 2021-11-24 10:16:17

Text #2
ID             : 4
Format           : Timed Text
Codec ID           : tx3g
Duration           : 1 h 32 min
Bit rate mode          : Variable
Bit rate           : 96 b/s
Stream size          : 65.0 KiB (0%)
Title            : Danish
Language           : Danish
Forced           : No
Encoded date         : UTC 2021-11-24 10:16:16
Tagged date          : UTC 2021-11-24 10:16:17

Text #3
ID             : 5
Format           : Timed Text
Codec ID           : tx3g
Duration           : 1 h 37 min
Bit rate mode          : Variable
Bit rate           : 78 b/s
Stream size          : 55.7 KiB (0%)
Title            : Finnish
Language           : Finnish
Forced           : No
Encoded date         : UTC 2021-11-24 10:16:16
Tagged date          : UTC 2021-11-24 10:16:17

Text #4
ID             : 6
Format           : Timed Text
Codec ID           : tx3g
Duration           : 1 h 32 min
Bit rate mode          : Variable
Bit rate           : 91 b/s
Stream size          : 61.4 KiB (0%)
Title            : Norwegian
Language           : Norwegian
Forced           : No
Encoded date         : UTC 2021-11-24 10:16:16
Tagged date          : UTC 2021-11-24 10:16:17

Text #5
ID             : 7
Format           : Timed Text
Codec ID           : tx3g
Duration           : 1 h 37 min
Bit rate mode          : Variable
Bit rate           : 89 b/s
Stream size          : 63.9 KiB (0%)
Title            : Portuguese
Language           : Portuguese
Forced           : No
Encoded date         : UTC 2021-11-24 10:16:17
Tagged date          : UTC 2021-11-24 10:16:17

Text #6
ID             : 8
Format           : Timed Text
Codec ID           : tx3g
Duration           : 1 h 33 min
Bit rate mode          : Variable
Bit rate           : 101 b/s
Stream size          : 69.1 KiB (0%)
Title            : Spanish-EU
Language           : Spanish
Forced           : No
Encoded date         : UTC 2021-11-24 10:16:17
Tagged date          : UTC 2021-11-24 10:16:17

Text #7
ID             : 9
Format           : Timed Text
Codec ID           : tx3g
Duration           : 1 h 33 min
Bit rate mode          : Variable
Bit rate           : 101 b/s
Stream size          : 69.1 KiB (0%)
Title            : Spanish-EU
Language           : Spanish
Forced           : No
Encoded date         : UTC 2021-11-24 10:16:17
Tagged date          : UTC 2021-11-24 10:16:17

Text #8
ID             : 10
Format           : Timed Text
Codec ID           : tx3g
Duration           : 1 h 33 min
Bit rate mode          : Variable
Bit rate           : 96 b/s
Stream size          : 66.0 KiB (0%)
Title            : Spanish-EU
Language           : Spanish
Forced           : No
Encoded date         : UTC 2021-11-24 10:16:17
Tagged date          : UTC 2021-11-24 10:16:17

Text #9
ID             : 11
Format           : Timed Text
Codec ID           : tx3g
Duration           : 1 h 37 min
Bit rate mode          : Variable
Bit rate           : 91 b/s
Stream size          : 64.7 KiB (0%)
Title            : Swedish
Language           : Swedish
Forced           : No
Encoded date         : UTC 2021-11-24 10:16:17
Tagged date          : UTC 2021-11-24 10:16:17[/code]





                                                                  
                                                                                                                                                                                                                                                                                 

本帖子中包含更多资源

您需要 登录 才可以下载或查看,没有帐号?立即注册

x
回复

使用道具 举报

您需要登录后才可以回帖 登录 | 立即注册

本版积分规则

4k蓝光原盘高清论坛

GMT+8, 2021-11-27 17:37 , Processed in 0.087536 second(s), 28 queries .

Powered by Discuz! X3.4

Copyright © 2001-2021, Tencent Cloud.

快速回复 返回顶部 返回列表