请选择 进入手机版 | 继续访问电脑版

4k蓝光原盘高清论坛

 找回密码
 立即注册
搜索
热搜: 活动 交友 discuz
查看: 1|回复: 0

斯宾塞/史宾沙 Spencer.2021.2160p.WEB-DL.x265.10bit.SDR.DDP5.1-NOGRP 17.15GB ...

[复制链接]

887

主题

887

帖子

2661

积分

超级版主

Rank: 8Rank: 8

积分
2661
发表于 前天 08:47 | 显示全部楼层 |阅读模式
斯宾塞/史宾沙 Spencer.2021.2160p.WEB-DL.x265.10bit.SDR.DDP5.1-NOGRP 17.15GB                                                                                                                                                                              -->
[quote]帖子完整标题:斯宾塞/史宾沙 Spencer.2021.2160p.WEB-DL.x265.10bit.SDR.DDP5.1-NOGRP 17.15GB[/code]





◎译  名 斯宾塞/史宾沙(港)/史宾赛(台)/斯潘塞/黛妃(台)
◎片  名 Spencer
◎年  代 2021
◎产  地 德国,智利,英国,美国
◎类  别 剧情 / 传记
◎语  言 英语
◎上映日期 2021-09-03(威尼斯电影节) / 2021-11-05(美国)
◎豆瓣评分 7.1/10 from 1854 users
◎ 
◎片  长 111分钟
◎导  演 帕布罗·拉雷恩 Pablo Larraín
◎编  剧 斯蒂文·奈特 Steven Knight
◎主  演 克里斯汀·斯图尔特 Kristen Stewart
     蒂莫西·斯波 Timothy Spall
     杰克·法辛 Jack Farthing
     莎莉·霍金斯 Sally Hawkins
     西恩·哈里斯 Sean Harris
     杰克·尼伦 Jack Nielen
     弗雷迪·斯普里 Freddie Spry
     伊丽莎白·贝林顿 Elizabeth Berrington
     斯特拉·古奈特 Stella Gonet
     艾米·曼森 Amy Manson
     詹姆斯·哈克尼斯 James Harkness
     理查德·塞梅尔 Richard Sammel
     洛尔·斯特凡克 Lore Stefanek
     艾玛·达沃尔-史密斯 Emma Darwall-Smith
     劳拉·本森 Laura Benson
     温迪·帕特森 Wendy Patterson
     约翰·基奥 John Keogh
     米迦勒·埃普 Michael Epp
     伊恩·阿什皮特尔 Ian Ashpitel

◎标  签 英国 | 传记 | 2021 | 历史 | 王室 | 剧情 | 女性 | 婚姻

◎简  介

  讲述1990年代早期关键性的一个周末,戴安娜下了决心:她跟查尔斯王子的婚姻不会有好结果,必须背离那条“皇后预备役”的道路。影片故事发生在3天内,圣诞假日期间的桑德灵汉姆庄园。

◎获奖情况

  第78届威尼斯电影节 ?(2021)
  主竞赛单元金狮奖(提名) 帕布罗·拉雷恩
[quote]Video
ID             : 1
Format           : HEVC
Format/Info          : High Efficiency Video Coding
Format profile         : Main @High
Codec ID           : V_MPEGH/ISO/HEVC
Duration           : 1 h 56 min
Bit rate           : 20.4 Mb/s
Width            : 3 600 pixels
Height           : 2 156 pixels
Display aspect ratio       : 5:3
Frame rate mode        : Constant
Frame rate           : 23.976 FPS
Color space          : YUV
Chroma subsampling       : 4:2:0
Bit depth          : 10 bits
Bits/(Pixel*Frame)       : 0.110
Stream size          : 16.6 GiB (97%)
Default            : Yes
Forced           : No
Color range          : Limited
Color primaries        : BT.709
Transfer characteristics     : BT.709
Matrix coefficients        : BT.709

Audio
ID             : 2
Format           : E-AC-3
Format/Info          : Enhanced AC-3
Commercial name        : Dolby Digital Plus
Codec ID           : A_EAC3
Duration           : 1 h 56 min
Bit rate mode          : Constant
Bit rate           : 640 kb/s
Channel(s)           : 6 channels
Channel layout         : L R C LFE Ls Rs
Sampling rate          : 48.0 kHz
Frame rate           : 31.250 FPS (1536 SPF)
Compression mode         : Lossy
Stream size          : 534 MiB (3%)
Language           : English
Service kind         : Complete Main
Default            : Yes
Forced           : No

Text #1
ID             : 3
Format           : UTF-8
Codec ID           : S_TEXT/UTF8
Codec ID/Info          : UTF-8 Plain Text
Duration           : 1 h 53 min
Bit rate           : 37 b/s
Count of elements        : 1099
Stream size          : 31.6 KiB (0%)
Language           : English
Default            : Yes
Forced           : No

Text #2
ID             : 4
Format           : UTF-8
Codec ID           : S_TEXT/UTF8
Codec ID/Info          : UTF-8 Plain Text
Duration           : 1 h 56 min
Bit rate           : 49 b/s
Count of elements        : 1456
Stream size          : 42.6 KiB (0%)
Title            : SDH
Language           : English
Default            : No
Forced           : No[/code]





                                                                  
                                                                                                                                                                                                                                                                                 

本帖子中包含更多资源

您需要 登录 才可以下载或查看,没有帐号?立即注册

x
回复

使用道具 举报

您需要登录后才可以回帖 登录 | 立即注册

本版积分规则

4k蓝光原盘高清论坛

GMT+8, 2021-11-27 17:07 , Processed in 0.088763 second(s), 28 queries .

Powered by Discuz! X3.4

Copyright © 2001-2021, Tencent Cloud.

快速回复 返回顶部 返回列表