请选择 进入手机版 | 继续访问电脑版

4k蓝光原盘高清论坛

 找回密码
 立即注册
搜索
热搜: 活动 交友 discuz
查看: 1|回复: 0

蒂米·菲列:错已铸成 Timmy.Failure.Mistakes.Were.Made.2020.2160p.WEB-DL.DDP5.1.At ...

[复制链接]

887

主题

887

帖子

2661

积分

超级版主

Rank: 8Rank: 8

积分
2661
发表于 前天 08:47 | 显示全部楼层 |阅读模式
蒂米·菲列:错已铸成 Timmy.Failure.Mistakes.Were.Made.2020.2160p.WEB-DL.DDP5.1.Atmos.DV.MP                                                                                                                                                                              -->
[quote]帖子完整标题:蒂米·菲列:错已铸成 Timmy.Failure.Mistakes.Were.Made.2020.2160p.WEB-DL.DDP5.1.Atmos.DV.MP4.x265-TEPES 15.87GB[/code]





◎译  名 蒂米·菲列:错已铸成/Timmy Failure/蒂米·菲悟
◎片  名 Timmy Failure: Mistakes Were Made
◎年  代 2020
◎产  地 美国
◎类  别 剧情 / 儿童 / 奇幻 / 冒险
◎语  言 英语
◎上映日期 2020-01-25(圣丹斯电影节) / 2020-02-07(美国)
◎豆瓣评分 6.3/10 from 328 users
◎ 
◎片  长 99分钟
◎导  演 汤姆·麦卡锡 Tom McCarthy
◎编  剧 汤姆·麦卡锡 Tom McCarthy / 斯蒂芬·帕斯蒂斯 Stephan Pastis
◎主  演 奥菲利亚·拉维邦德 Ophelia Lovibond
     华莱士·肖恩 Wallace Shawn
     凯尔·柏海莫 Kyle Bornheimer
     温斯洛·费格雷 Winslow Fegley
     克雷格·罗宾森 Craig Robinson
     克洛伊·科尔曼 Chloe Coleman
     Ruby Matenko Ruby Matenko
     艾-钱·卡里尔 Ai-Chan Carrier
     丹妮·海芙琳 Danni Heverin
     杰夫·桑卡 Jeff Sanca
     杰布·贝里耶 Jeb Berrier
     Jason Rouse Jason Rouse

◎标  签 儿童 | 奇幻 | 成长 | 2020 | 迪士尼 | 美国 | 家庭 | 剧情

◎简  介

  该片改编自同名儿童小说,麦卡锡将同原著作者斯蒂芬·帕斯蒂斯共同编剧。该小说讲述一个11岁的小男孩蒂米·菲悟,他是一个毫无头绪,却又自信搞笑的私家侦探机构总裁。而他的搭档是一只想象出的北极熊。
[quote]Video
ID             : 1
Format           : HEVC
Format/Info          : High Efficiency Video Coding
Format profile         : Main @Main
HDR format           : Dolby Vision, Version 1.0, dvhe.05.06, BL+RPU
Codec ID           : dvhe
Codec ID/Info          : High Efficiency Video Coding with Dolby Vision
Duration           : 1 h 39 min
Bit rate           : 22.4 Mb/s
Width            : 3 840 pixels
Height           : 2 160 pixels
Display aspect ratio       : 16:9
Frame rate mode        : Constant
Frame rate           : 23.976 (24000/1001/189150) FPS
Color space          : YUV
Chroma subsampling       : 4:2:0 (Type 0)
Bit depth          : 10 bits
Bits/(Pixel*Frame)       : 0.112
Stream size          : 15.5 GiB (98%)
Default            : Yes
Alternate group        : 1
Encoded date         : UTC 2021-11-23 18:15:16
Tagged date          : UTC 2021-11-23 18:17:35
Color range          : Full
Codec configuration box      : hvcC+dvcC

Audio
ID             : 2
Format           : E-AC-3 JOC
Format/Info          : Enhanced AC-3 with Joint Object Coding
Commercial name        : Dolby Digital Plus with Dolby Atmos
Codec ID           : ec-3
Duration           : 1 h 43 min
Source duration        : 1 h 43 min
Bit rate mode          : Constant
Bit rate           : 768 kb/s
Maximum bit rate         : 811 kb/s
Channel(s)           : 6 channels
Channel layout         : L R C LFE Ls Rs
Sampling rate          : 48.0 kHz
Frame rate           : 31.250 FPS (1536 SPF)
Compression mode         : Lossy
Stream size          : 340 MiB (2%)
Source stream size       : 340 MiB (2%)
Language           : English
Service kind         : Complete Main
Default            : Yes
Alternate group        : 1
Tagged date          : UTC 2021-11-23 18:17:35
Complexity index         : Not present / 16
Number of dynamic objects      : 15
Bed channel count        : 1 channel
Bed channel configuration      : LFE

Text #1
ID             : 4
Format           : Timed Text
Codec ID           : tx3g
Duration           : 1 h 35 min
Bit rate mode          : Variable
Bit rate           : 85 b/s
Stream size          : 59.6 KiB (0%)
Language           : English
Forced           : No
Encoded date         : UTC 2021-11-23 18:17:24
Tagged date          : UTC 2021-11-23 18:17:35

Text #2
ID             : 5
Format           : Timed Text
Codec ID           : tx3g
Duration           : 1 h 35 min
Bit rate mode          : Variable
Bit rate           : 89 b/s
Stream size          : 62.3 KiB (0%)
Title            : SDH
Language           : English
Forced           : No
Encoded date         : UTC 2021-11-23 18:17:26
Tagged date          : UTC 2021-11-23 18:17:35

Text #3
ID             : 6
Format           : Timed Text
Codec ID           : tx3g
Duration           : 1 h 32 min
Bit rate mode          : Variable
Bit rate           : 84 b/s
Stream size          : 57.3 KiB (0%)
Language           : Danish
Forced           : No
Encoded date         : UTC 2021-11-23 18:17:26
Tagged date          : UTC 2021-11-23 18:17:35

Text #4
ID             : 7
Format           : Timed Text
Codec ID           : tx3g
Duration           : 1 h 39 min
Bit rate mode          : Variable
Bit rate           : 77 b/s
Stream size          : 55.8 KiB (0%)
Language           : German
Forced           : No
Encoded date         : UTC 2021-11-23 18:17:27
Tagged date          : UTC 2021-11-23 18:17:35

Text #5
ID             : 8
Format           : Timed Text
Codec ID           : tx3g
Duration           : 1 h 39 min
Bit rate mode          : Variable
Bit rate           : 81 b/s
Stream size          : 58.9 KiB (0%)
Title            : Latin American
Language           : Spanish
Forced           : No
Encoded date         : UTC 2021-11-23 18:17:28
Tagged date          : UTC 2021-11-23 18:17:35

Text #6
ID             : 9
Format           : Timed Text
Codec ID           : tx3g
Duration           : 1 h 39 min
Bit rate mode          : Variable
Bit rate           : 77 b/s
Stream size          : 56.3 KiB (0%)
Language           : Spanish
Forced           : No
Encoded date         : UTC 2021-11-23 18:17:29
Tagged date          : UTC 2021-11-23 18:17:35

Text #7
ID             : 10
Format           : Timed Text
Codec ID           : tx3g
Duration           : 1 h 39 min
Bit rate mode          : Variable
Bit rate           : 69 b/s
Stream size          : 50.4 KiB (0%)
Language           : Finnish
Forced           : No
Encoded date         : UTC 2021-11-23 18:17:29
Tagged date          : UTC 2021-11-23 18:17:35

Text #8
ID             : 11
Format           : Timed Text
Codec ID           : tx3g
Duration           : 1 h 39 min
Bit rate mode          : Variable
Bit rate           : 81 b/s
Stream size          : 59.0 KiB (0%)
Language           : French
Forced           : No
Encoded date         : UTC 2021-11-23 18:17:30
Tagged date          : UTC 2021-11-23 18:17:35

Text #9
ID             : 12
Format           : Timed Text
Codec ID           : tx3g
Duration           : 1 h 39 min
Bit rate mode          : Variable
Bit rate           : 81 b/s
Stream size          : 58.7 KiB (0%)
Language           : Italian
Forced           : No
Encoded date         : UTC 2021-11-23 18:17:30
Tagged date          : UTC 2021-11-23 18:17:35

Text #10
ID             : 13
Format           : Timed Text
Codec ID           : tx3g
Duration           : 1 h 39 min
Bit rate mode          : Variable
Bit rate           : 69 b/s
Stream size          : 50.1 KiB (0%)
Language           : Japanese
Forced           : No
Encoded date         : UTC 2021-11-23 18:17:31
Tagged date          : UTC 2021-11-23 18:17:35

Text #11
ID             : 14
Format           : Timed Text
Codec ID           : tx3g
Duration           : 1 h 39 min
Bit rate mode          : Variable
Bit rate           : 80 b/s
Stream size          : 58.6 KiB (0%)
Language           : Korean
Forced           : No
Encoded date         : UTC 2021-11-23 18:17:31
Tagged date          : UTC 2021-11-23 18:17:35

Text #12
ID             : 15
Format           : Timed Text
Codec ID           : tx3g
Duration           : 1 h 39 min
Bit rate mode          : Variable
Bit rate           : 65 b/s
Stream size          : 47.5 KiB (0%)
Language           : Dutch
Forced           : No
Encoded date         : UTC 2021-11-23 18:17:32
Tagged date          : UTC 2021-11-23 18:17:35

Text #13
ID             : 16
Format           : Timed Text
Codec ID           : tx3g
Duration           : 1 h 39 min
Bit rate mode          : Variable
Bit rate           : 71 b/s
Stream size          : 51.6 KiB (0%)
Language           : Norwegian
Forced           : No
Encoded date         : UTC 2021-11-23 18:17:32
Tagged date          : UTC 2021-11-23 18:17:35

Text #14
ID             : 17
Format           : Timed Text
Codec ID           : tx3g
Duration           : 1 h 39 min
Bit rate mode          : Variable
Bit rate           : 66 b/s
Stream size          : 48.1 KiB (0%)
Language           : Polish
Forced           : No
Encoded date         : UTC 2021-11-23 18:17:33
Tagged date          : UTC 2021-11-23 18:17:35

Text #15
ID             : 18
Format           : Timed Text
Codec ID           : tx3g
Duration           : 1 h 39 min
Bit rate mode          : Variable
Bit rate           : 80 b/s
Stream size          : 58.2 KiB (0%)
Title            : Brazilian
Language           : Portuguese
Forced           : No
Encoded date         : UTC 2021-11-23 18:17:33
Tagged date          : UTC 2021-11-23 18:17:35

Text #16
ID             : 19
Format           : Timed Text
Codec ID           : tx3g
Duration           : 1 h 39 min
Bit rate mode          : Variable
Bit rate           : 84 b/s
Stream size          : 61.3 KiB (0%)
Language           : Portuguese
Forced           : No
Encoded date         : UTC 2021-11-23 18:17:33
Tagged date          : UTC 2021-11-23 18:17:35

Text #17
ID             : 20
Format           : Timed Text
Codec ID           : tx3g
Duration           : 1 h 39 min
Bit rate mode          : Variable
Bit rate           : 80 b/s
Stream size          : 58.5 KiB (0%)
Language           : Swedish
Forced           : No
Encoded date         : UTC 2021-11-23 18:17:34
Tagged date          : UTC 2021-11-23 18:17:35

Text #18
ID             : 21
Format           : Timed Text
Codec ID           : tx3g
Duration           : 1 h 39 min
Bit rate mode          : Variable
Bit rate           : 61 b/s
Stream size          : 44.2 KiB (0%)
Language           : Chinese
Forced           : No
Encoded date         : UTC 2021-11-23 18:17:34
Tagged date          : UTC 2021-11-23 18:17:35

Text #19
ID             : 22
Format           : Timed Text
Codec ID           : tx3g
Duration           : 1 h 39 min
Bit rate mode          : Variable
Bit rate           : 61 b/s
Stream size          : 44.3 KiB (0%)
Title            : Simplified
Language           : Chinese
Forced           : No
Encoded date         : UTC 2021-11-23 18:17:34
Tagged date          : UTC 2021-11-23 18:17:35

Text #20
ID             : 23
Format           : Timed Text
Codec ID           : tx3g
Duration           : 1 h 32 min
Bit rate mode          : Variable
Bit rate           : 68 b/s
Stream size          : 46.4 KiB (0%)
Title            : Traditional
Language           : Chinese
Forced           : No
Encoded date         : UTC 2021-11-23 18:17:35
Tagged date          : UTC 2021-11-23 18:17:35

Menu
01:34:19.319         : Credits[/code]





                                                                  
                                                                                                                                                                                                                                                                                 

本帖子中包含更多资源

您需要 登录 才可以下载或查看,没有帐号?立即注册

x
回复

使用道具 举报

您需要登录后才可以回帖 登录 | 立即注册

本版积分规则

4k蓝光原盘高清论坛

GMT+8, 2021-11-27 17:15 , Processed in 0.102349 second(s), 28 queries .

Powered by Discuz! X3.4

Copyright © 2001-2021, Tencent Cloud.

快速回复 返回顶部 返回列表