请选择 进入手机版 | 继续访问电脑版

4k蓝光原盘高清论坛

 找回密码
 立即注册
搜索
热搜: 活动 交友 discuz
查看: 6|回复: 0

致埃文·汉森/亲爱的埃文·汉森 Dear.Evan.Hansen.2021.2160p.WEB-DL.x265.10bit.SDR. ...

[复制链接]

885

主题

885

帖子

2655

积分

超级版主

Rank: 8Rank: 8

积分
2655
发表于 3 天前 | 显示全部楼层 |阅读模式
致埃文·汉森/亲爱的埃文·汉森 Dear.Evan.Hansen.2021.2160p.WEB-DL.x265.10bit.SDR.DDP5.1.Atmos-N                                                                                                                                                                              -->
[quote]帖子完整标题:致埃文·汉森/亲爱的埃文·汉森 Dear.Evan.Hansen.2021.2160p.WEB-DL.x265.10bit.SDR.DDP5.1.Atmos-NOGRP 12.09GB[/code]





◎译  名 致埃文·汉森/亲爱的埃文·汉森
◎片  名 Dear Evan Hansen
◎年  代 2021
◎产  地 美国
◎类  别 剧情 / 歌舞
◎语  言 英语
◎上映日期 2021-09-09(多伦多电影节) / 2021-09-24(美国)
◎豆瓣评分 6.8/10 from 1584 users
◎ 
◎片  长 137分钟
◎导  演 斯蒂芬·卓博斯基 Stephen Chbosky
◎编  剧 史蒂文·莱文森 Steven Levenson / 本吉·帕塞克 Benj Pasek / 贾斯廷·保罗 Justin Paul
◎主  演 本·普拉特 Ben Platt
     朱丽安·摩尔 Julianne Moore
     凯特琳·德弗 Kaitlyn Dever
     艾米·亚当斯 Amy Adams
     丹尼·皮诺 Danny Pino
     科尔顿·瑞安 Colton Ryan
     阿曼德拉·斯坦伯格Amandla Stenberg
     尼克·多达尼 Nik Dodani
     艾萨克·鲍威尔 Isaac Powell
     金·罗森 Kim Rosen

◎标  签 音乐剧 | 百老汇 | 青春 | 美国 | BenPlatt | 托尼奖 | 电影 | DEH

◎简  介

  聚焦青少年自杀、心理疾病等问题,讲述一个深受社交恐惧折磨的高中生编造故事,试图接近一个已自杀的同学的家庭。对“局外人”、心理创伤和人性的探讨细腻、私人,触动心灵。
[quote]Video
ID             : 1
Format           : HEVC
Format/Info          : High Efficiency Video Coding
Format profile         : Main @High
Codec ID           : V_MPEGH/ISO/HEVC
Duration           : 2 h 17 min
Bit rate           : 11.8 Mb/s
Width            : 3 840 pixels
Height           : 1 606 pixels
Display aspect ratio       : 2.40:1
Frame rate mode        : Constant
Frame rate           : 23.976 FPS
Color space          : YUV
Chroma subsampling       : 4:2:0
Bit depth          : 10 bits
Bits/(Pixel*Frame)       : 0.080
Stream size          : 11.3 GiB (94%)
Default            : Yes
Forced           : No
Color range          : Limited
Color primaries        : BT.709
Transfer characteristics     : BT.709
Matrix coefficients        : BT.709

Audio
ID             : 2
Format           : E-AC-3 JOC
Format/Info          : Enhanced AC-3 with Joint Object Coding
Commercial name        : Dolby Digital Plus with Dolby Atmos
Codec ID           : A_EAC3
Duration           : 2 h 17 min
Bit rate mode          : Constant
Bit rate           : 768 kb/s
Channel(s)           : 6 channels
Channel layout         : L R C LFE Ls Rs
Sampling rate          : 48.0 kHz
Frame rate           : 31.250 FPS (1536 SPF)
Compression mode         : Lossy
Stream size          : 754 MiB (6%)
Title            : English
Language           : English
Service kind         : Complete Main
Default            : No
Forced           : No
Complexity index         : 16
Number of dynamic objects      : 15
Bed channel count        : 1 channel
Bed channel configuration      : LFE

Text
ID             : 3
Format           : UTF-8
Codec ID           : S_TEXT/UTF8
Codec ID/Info          : UTF-8 Plain Text
Duration           : 2 h 16 min
Bit rate           : 70 b/s
Count of elements        : 2225
Stream size          : 70.7 KiB (0%)
Language           : English
Default            : Yes
Forced           : No[/code]





                                                                  
                                                                                                                                                                                                                                                                                 

本帖子中包含更多资源

您需要 登录 才可以下载或查看,没有帐号?立即注册

x
回复

使用道具 举报

您需要登录后才可以回帖 登录 | 立即注册

本版积分规则

4k蓝光原盘高清论坛

GMT+8, 2021-11-27 15:47 , Processed in 0.085179 second(s), 28 queries .

Powered by Discuz! X3.4

Copyright © 2001-2021, Tencent Cloud.

快速回复 返回顶部 返回列表