请选择 进入手机版 | 继续访问电脑版

4k蓝光原盘高清论坛

 找回密码
 立即注册
搜索
热搜: 活动 交友 discuz
查看: 4|回复: 0

毒液2 Venom.Let.There.Be.Carnage.2021.2160p.WEB-DL.x265.10bit.HDR10Plus.DDP5.1.A .

[复制链接]

885

主题

885

帖子

2655

积分

超级版主

Rank: 8Rank: 8

积分
2655
发表于 3 天前 | 显示全部楼层 |阅读模式
毒液2 Venom.Let.There.Be.Carnage.2021.2160p.WEB-DL.x265.10bit.HDR10Plus.DDP5.1.Atm                                                                                                                                                                              -->
[quote]帖子完整标题:毒液2 Venom.Let.There.Be.Carnage.2021.2160p.WEB-DL.x265.10bit.HDR10Plus.DDP5.1.Atmos-NOGRP 10.57GB[/code]




◎译  名 毒液2/Venom 2/毒液:屠杀开始/毒液:放纵屠杀/毒液2:屠杀将至/毒液2:屠杀开始/毒魔:血战大屠杀(港)/猛毒2:血蜘蛛(台)
◎片  名 Venom: Let There Be Carnage
◎年  代 2021
◎产  地 美国
◎类  别 动作 / 科幻 / 惊悚
◎语  言 英语
◎上映日期 2021(中国大陆) / 2021-10-01(美国) / 2021-10(英国)
◎豆瓣评分 5.1/10 from 38850 users
◎ 
◎片  长 97分钟
◎导  演 安迪·瑟金斯 Andy Serkis
◎编  剧 凯莉·马塞尔 Kelly Marcel / 汤姆·哈迪 Tom Hardy
◎主  演 汤姆·哈迪 Tom Hardy
     伍迪·哈里森 Woody Harrelson
     米歇尔·威廉姆斯 Michelle Williams
     娜奥米·哈里斯 Naomie Harris
     瑞德·斯科特 Reid Scott
     斯蒂芬·格拉汉姆 Stephen Graham
     汤姆·赫兰德 Tom Holland
     里斯·谢尔史密斯 Reece Shearsmith
     肖恩·德兰尼 Sean Delaney
     佩吉·陆 Peggy Lu
     劳伦斯·斯佩尔曼 Laurence Spellman
     杰克·班戴拉 Jack Bandeira
     斯克鲁比斯·皮普 Scroobius Pip
     阿姆·阿勒卡迪 Amrou Al-Kadhi
     斯图尔特·亚历山大 Stewart Alexander
     克里斯托弗戈德温 Christopher Godwin
     格雷戈·洛基特 Greg Lockett
     桑尼·阿什本·瑟金斯 Sonny Ashbourne Serkis
     雷切尔·汉德肖 Rachel Handshaw
     小田部阿基 Akie Kotabe
     埃里克·西格蒙德森 Eric Sigmundsson
     何塞?帕尔马 Jose Palma
     Rosie Marcel Rosie Marcel
     艾略特·凯博尔 Elliot Cable
     威廉·W·巴伯 William W. Barbour
     埃尔文·费利西达 Erwin Felicilda
     露丝·霍洛克斯 Ruth Horrocks
     约翰·洛巴托 John Lobato
     迪索·拉莫斯 Diezel Ramos
     迈克尔·安德鲁·里德 Michael Andrew Reed
     里克·理查森 Rick Richardson
     安珀·西耶娜 Amber Sienna
     艾蒂安·维克 Etienne Vick
     杰茜·维宁 Jessie Vinning
     中川翔子 Sh?ko Nakagawa

◎标  签 漫威 | 毒液 | 科幻 | 超级英雄 | 美国 | 动作 | 2021 | 漫画改编

◎简  介

  电影讲述了外星共生体“毒液”与宿主埃迪(汤姆·哈迪 饰)这对“最佳拍档”遇上致命反派共生体“卡内奇”(伍迪·哈里森 饰),超级英雄和邪恶反派的宿命之战即将开始。

◎获奖情况

  第7届豆瓣电影年度榜单 ?(2020)
  最值得期待的外语电影(提名)
  
  第6届豆瓣电影年度榜单 ?(2019)
  最值得期待的外语电影(提名)
[quote]Video
ID             : 1
Format           : HEVC
Format/Info          : High Efficiency Video Coding
Format profile         : Main @Main
HDR format           : SMPTE ST 2094 App 4, Version 1, HDR10+ Profile B compatible
Codec ID           : V_MPEGH/ISO/HEVC
Duration           : 1 h 37 min
Bit rate           : 14.8 Mb/s
Width            : 3 840 pixels
Height           : 2 080 pixels
Display aspect ratio       : 1.85:1
Frame rate mode        : Constant
Frame rate           : 23.976 (24000/1001/189150) FPS
Color space          : YUV
Chroma subsampling       : 4:2:0
Bit depth          : 10 bits
Bits/(Pixel*Frame)       : 0.077
Stream size          : 10.0 GiB (95%)
Default            : Yes
Forced           : No
Color range          : Limited
Color primaries        : BT.2020
Transfer characteristics     : PQ
Matrix coefficients        : BT.2020 non-constant
Mastering display color primaries  : BT.2020
Mastering display luminance    : min: 0.0001 cd/m2, max: 1000 cd/m2
Maximum Content Light Level    : 5681 cd/m2
Maximum Frame-Average Light Level  : 522 cd/m2

Audio
ID             : 2
Format           : E-AC-3 JOC
Format/Info          : Enhanced AC-3 with Joint Object Coding
Commercial name        : Dolby Digital Plus with Dolby Atmos
Codec ID           : A_EAC3
Duration           : 1 h 37 min
Bit rate mode          : Constant
Bit rate           : 768 kb/s
Channel(s)           : 6 channels
Channel layout         : L R C LFE Ls Rs
Sampling rate          : 48.0 kHz
Frame rate           : 31.250 FPS (1536 SPF)
Compression mode         : Lossy
Stream size          : 534 MiB (5%)
Title            : English
Language           : English
Service kind         : Complete Main
Default            : No
Forced           : No
Complexity index         : 16
Number of dynamic objects      : 15
Bed channel count        : 1 channel
Bed channel configuration      : LFE

Text #1
ID             : 3
Format           : UTF-8
Codec ID           : S_TEXT/UTF8
Codec ID/Info          : UTF-8 Plain Text
Duration           : 1 h 27 min
Bit rate           : 57 b/s
Count of elements        : 1290
Stream size          : 36.7 KiB (0%)
Language           : English
Default            : Yes
Forced           : No

Text #2
ID             : 4
Format           : UTF-8
Codec ID           : S_TEXT/UTF8
Codec ID/Info          : UTF-8 Plain Text
Duration           : 1 h 36 min
Bit rate           : 79 b/s
Count of elements        : 1862
Stream size          : 55.9 KiB (0%)
Title            : SDH
Language           : English
Default            : No
Forced           : No

Text #3
ID             : 5
Format           : UTF-8
Codec ID           : S_TEXT/UTF8
Codec ID/Info          : UTF-8 Plain Text
Duration           : 1 h 36 min
Bit rate           : 43 b/s
Count of elements        : 1087
Stream size          : 30.5 KiB (0%)
Title            : Latin American
Language           : Spanish
Default            : No
Forced           : No

Text #4
ID             : 6
Format           : UTF-8
Codec ID           : S_TEXT/UTF8
Codec ID/Info          : UTF-8 Plain Text
Duration           : 1 h 35 min
Bit rate           : 45 b/s
Count of elements        : 1125
Stream size          : 32.3 KiB (0%)
Language           : Korean
Default            : No
Forced           : No

Text #5
ID             : 7
Format           : UTF-8
Codec ID           : S_TEXT/UTF8
Codec ID/Info          : UTF-8 Plain Text
Duration           : 1 h 36 min
Bit rate           : 44 b/s
Count of elements        : 1077
Stream size          : 31.3 KiB (0%)
Title            : Brazilian
Language           : Portuguese
Default            : No
Forced           : No

Menu
00:00:00.000         : en:Chapter 1
00:05:25.949         : en:Chapter 2
00:11:33.485         : en:Chapter 3
00:18:22.434         : en:Chapter 4
00:23:00.630         : en:Chapter 5
00:30:27.160         : en:Chapter 6
00:35:03.769         : en:Chapter 7
00:43:09.130         : en:Chapter 8
00:47:27.347         : en:Chapter 9
00:54:53.418         : en:Chapter 10
01:01:32.817         : en:Chapter 11
01:06:19.478         : en:Chapter 12
01:11:49.184         : en:Chapter 13
01:18:03.725         : en:Chapter 14
01:21:52.494         : en:Chapter 15
01:26:41.326         : en:Chapter 16[/code]





                                                                  
                                                                                                                                                                                                                                                                                 

本帖子中包含更多资源

您需要 登录 才可以下载或查看,没有帐号?立即注册

x
回复

使用道具 举报

您需要登录后才可以回帖 登录 | 立即注册

本版积分规则

4k蓝光原盘高清论坛

GMT+8, 2021-11-27 16:13 , Processed in 0.084986 second(s), 28 queries .

Powered by Discuz! X3.4

Copyright © 2001-2021, Tencent Cloud.

快速回复 返回顶部 返回列表