请选择 进入手机版 | 继续访问电脑版

4k蓝光原盘高清论坛

 找回密码
 立即注册
搜索
热搜: 活动 交友 discuz
查看: 7|回复: 0

亚当斯一家2/爱登士家庭2 The.Addams.Family.2.2021.2160p.WEB-DL.x265.10bit.HDR.DDP ...

[复制链接]

887

主题

887

帖子

2661

积分

超级版主

Rank: 8Rank: 8

积分
2661
发表于 3 天前 | 显示全部楼层 |阅读模式
亚当斯一家2/爱登士家庭2 The.Addams.Family.2.2021.2160p.WEB-DL.x265.10bit.HDR.DDP5.1-NOGRP                                                                                                                                                                              -->
[quote]帖子完整标题:亚当斯一家2/爱登士家庭2 The.Addams.Family.2.2021.2160p.WEB-DL.x265.10bit.HDR.DDP5.1-NOGRP 9.46GB[/code]




◎译  名 亚当斯一家2/爱登士家庭2(港)/阿达一族2(台)
◎片  名 The Addams Family 2
◎年  代 2021
◎产  地 美国
◎类  别 喜剧 / 动画 / 奇幻
◎语  言 英语
◎上映日期 2021-10-01(美国)
◎豆瓣评分 6.0/10 from 1106 users
◎ 
◎导  演 格雷格·蒂曼 Greg Tiernan / 康拉德·弗农 Conrad Vernon
◎编  剧 查尔斯·亚当斯 Charles Addams
◎主  演 奥斯卡·伊萨克 Oscar Isaac
     查理兹·塞隆 Charlize Theron
     科洛·莫瑞兹 Chlo? Grace Moretz
     尼克·克罗尔 Nick Kroll
     杰文·旺纳·沃尔顿 Javon 'Wanna' Walton
     华莱士·肖恩 Wallace Shawn
     史努比狗狗 Snoop Dogg
     贝特·米德勒 Bette Midler
     比尔·哈德尔 Bill Hader

◎标  签 动画 | 美国 | 哥特 | 奇幻 | 喜剧 | 家庭 | 2021 | 美国电影

◎简  介

  动画电影版《亚当斯一家》将拍续集。这部黑暗哥特喜剧刚在北美上映,票房上佳(首周4天3500万美元),米高梅/联美发行公司趁热宣布:《亚当斯一家2》正式定档2021年10月22日北美上映。
[quote]Video
ID             : 1
Format           : HEVC
Format/Info          : High Efficiency Video Coding
Format profile         : Main @High
HDR format           : SMPTE ST 2086, HDR10 compatible
Codec ID           : V_MPEGH/ISO/HEVC
Duration           : 1 h 32 min
Bit rate           : 14.0 Mb/s
Width            : 3 832 pixels
Height           : 2 068 pixels
Display aspect ratio       : 1.85:1
Frame rate mode        : Constant
Frame rate           : 23.976 FPS
Color space          : YUV
Chroma subsampling       : 4:2:0 (Type 2)
Bit depth          : 10 bits
Bits/(Pixel*Frame)       : 0.073
Stream size          : 9.04 GiB (96%)
Language           : English
Default            : Yes
Forced           : No
Color range          : Limited
Color primaries        : BT.2020
Transfer characteristics     : PQ
Matrix coefficients        : BT.2020 non-constant
Mastering display color primaries  : BT.2020
Mastering display luminance    : min: 0.0050 cd/m2, max: 1000 cd/m2
Maximum Content Light Level    : 3910 cd/m2
Maximum Frame-Average Light Level  : 836 cd/m2

Audio
ID             : 2
Format           : E-AC-3
Format/Info          : Enhanced AC-3
Commercial name        : Dolby Digital Plus
Codec ID           : A_EAC3
Duration           : 1 h 32 min
Bit rate mode          : Constant
Bit rate           : 640 kb/s
Channel(s)           : 6 channels
Channel layout         : L R C LFE Ls Rs
Sampling rate          : 48.0 kHz
Frame rate           : 31.250 FPS (1536 SPF)
Compression mode         : Lossy
Stream size          : 424 MiB (4%)
Title            : English
Language           : English
Service kind         : Complete Main
Default            : No
Forced           : No

Text #1
ID             : 3
Format           : UTF-8
Codec ID           : S_TEXT/UTF8
Codec ID/Info          : UTF-8 Plain Text
Duration           : 1 h 27 min
Bit rate           : 56 b/s
Count of elements        : 1437
Stream size          : 36.1 KiB (0%)
Language           : English
Default            : Yes
Forced           : No

Text #2
ID             : 4
Format           : UTF-8
Codec ID           : S_TEXT/UTF8
Codec ID/Info          : UTF-8 Plain Text
Duration           : 1 h 27 min
Bit rate           : 80 b/s
Count of elements        : 1870
Stream size          : 51.8 KiB (0%)
Title            : SDH
Language           : English
Default            : No
Forced           : No[/code]




                                                                  
                                                                                                                                                                                                                                                                                 

本帖子中包含更多资源

您需要 登录 才可以下载或查看,没有帐号?立即注册

x
回复

使用道具 举报

您需要登录后才可以回帖 登录 | 立即注册

本版积分规则

4k蓝光原盘高清论坛

GMT+8, 2021-11-27 16:26 , Processed in 0.086612 second(s), 34 queries .

Powered by Discuz! X3.4

Copyright © 2001-2021, Tencent Cloud.

快速回复 返回顶部 返回列表