请选择 进入手机版 | 继续访问电脑版

4k蓝光原盘高清论坛

 找回密码
 立即注册
搜索
热搜: 活动 交友 discuz
查看: 9|回复: 0

谁陷害了兔子罗杰 Who.Framed.Roger.Rabbit.1988.2160p.BluRay.x264.8bit.SDR.DTS-HD. ...

[复制链接]

888

主题

888

帖子

2664

积分

超级版主

Rank: 8Rank: 8

积分
2664
发表于 4 天前 | 显示全部楼层 |阅读模式
谁陷害了兔子罗杰 Who.Framed.Roger.Rabbit.1988.2160p.BluRay.x264.8bit.SDR.DTS-HD.MA.TrueH                                                                                                                                                                              -->
[quote]帖子完整标题:谁陷害了兔子罗杰 Who.Framed.Roger.Rabbit.1988.2160p.BluRay.x264.8bit.SDR.DTS-HD.MA.TrueHD.7.1.Atmos-SWTYBLZ 41.73GB[/code]




◎译  名 谁陷害了兔子罗杰/Who Framed Roger Rabbit 3D/威探闯通关/梦城兔福星
◎片  名 Who Framed Roger Rabbit
◎年  代 1988
◎产  地 美国
◎类  别 喜剧 / 动画 / 冒险
◎语  言 英语
◎上映日期 1988-06-22(美国)
◎豆瓣评分 7.8/10 from 20680 users
◎ 
◎片  长 104分钟
◎导  演 罗伯特·泽米吉斯 Robert Zemeckis
◎编  剧 杰弗里·普赖斯 Jeffrey Price / 彼得·S·西曼 Peter S. Seaman
◎主  演 鲍勃·霍斯金斯 Bob Hoskins
     克里斯托弗·洛伊德 Christopher Lloyd
     乔安娜·卡西迪 Joanna Cassidy
     查尔斯·弗莱舍 Charles Fleischer
     斯塔比·凯耶 Stubby Kaye
     阿兰·提尔文 Alan Tilvern
     里夏尔·勒帕芒捷 Richard LeParmentier
     贝齐·布兰特利 Betsy Brantley
     乔·西尔沃 Joel Silver
     理查德·赖丁斯 Richard Ridings
     乔尔·库特拉拉 Joel Cutrara
     艾德·赫利希 Ed Herlihy
     艾普尔·温切尔 April Winchell
     梅·奎斯特尔 Mae Questel
     梅尔·布兰科 Mel Blanc
     托尼·安塞尔莫 Tony Anselmo
     乔·阿拉斯奇 Joe Alaskey
     大卫·L·兰德尔 David L. Lander
     琼·弗雷 June Foray
     露西·泰勒 Russi Taylor
     理查德·威廉姆斯 Richard Williams
     韦恩·艾尔温 Wayne Allwine
     吉姆·卡明斯 Jim Cummings
     弗兰克·辛纳特拉 Frank Sinatra
     杰克·安杰尔 Jack Angel
     科里·伯顿 Corey Burton
     南茜·卡特莱特 Nancy Cartwright
     萨迪·科尔 Sadie Corre
     比尔·法玛尔 Bill Farmer
     德里克·莱昂斯 Derek Lyons
     米凯·麦高万 Mickie McGowan
      克拉伦斯·纳什 Clarence Nash
     菲利普·奥布莱恩 Philip O'Brien
     凯瑟琳·特纳 Kathleen Turner
     弗兰克·维尔克 Frank Welker
     James O'Connell James O'Connell
     Pat Buttram Pat Buttram
     Tony Pope Tony Pope
     Christine Hewett Christine Hewett
     艾米·欧文 Amy Irving
     肯·拉斯顿 Ken Ralston

◎标  签 动画 | 美国 | 喜剧 | 1988 | 美国电影 | 卡通 | 动画片 | 美国动画

◎简  介

  在美国洛杉矶有一个专供卡通人物居住的“图恩城”,卡通明星兔子罗杰(Charles Fleischer 配音)怀疑妻子杰西卡(凯瑟琳·特纳 Kathleen Turner 配音)有外遇,拍戏时常常走神,遭到他的搭档娃娃哈曼的奚落。卡通电影公司老板马隆便雇佣私人侦探埃迪(鲍勃·霍斯金斯 Bob Hoskins 配音)去查明情况,并拍下杰西卡偷情的照片,好让罗杰下定决心,斩断情缘,专心投入卡通系列片的拍摄。埃迪因自己的弟弟特迪不久前被“图恩城”的卡通角色暗害,也急于早日追出凶手,便慨然将此事承诺下来。而随着调查的深入,事情并不像埃迪想的那么简单,其中还另有奸情,慨然将此事承诺下来,就不能轻易放弃,埃迪能否找到案件背后的真相呢……
  
  本片根据加里·沃尔夫的同名畅销小说改编,同时是一部真人和动画相结合的影片。

◎获奖情况

  第61届奥斯卡金像奖 ?(1989)
  最佳摄影(提名) 迪恩·康迪
  最佳剪辑 阿瑟·施密特
  最佳视觉效果 理查德·威廉姆斯?/?肯·拉斯顿?/?埃德·琼斯?/?乔治·吉布斯
  最佳音效剪辑 查尔斯·L·坎贝尔?/?路易斯·L·埃德曼恩
  最佳音响(提名) 约翰·博伊德?/?罗伯特·努德森?/?托尼·道?/?唐·迪吉罗拉莫
  最佳艺术指导(提名) 艾略特·斯科特?/?彼得·霍威特
  特别成就奖 理查德·威廉姆斯
[quote]Video
ID             : 1
Format           : AVC
Format/Info          : Advanced Video Codec
Format profile         :
Format settings        : CABAC / 5 Ref Frames
Format settings, CABAC       : Yes
Format settings, Reference frames  : 5 frames
Codec ID           : V_MPEG4/ISO/AVC
Duration           : 1 h 43 min
Bit rate           : 48.4 Mb/s
Width            : 3 840 pixels
Height           : 2 076 pixels
Display aspect ratio       : 1.85:1
Frame rate mode        : Constant
Frame rate           : 23.976 (24000/1001/189150) FPS
Color space          : YUV
Chroma subsampling       : 4:2:0
Bit depth          : 8 bits
Scan type          : Progressive
Bits/(Pixel*Frame)       : 0.253
Stream size          : 35.1 GiB (84%)
Writing library        : x264 core 157 r2935 545de2f
Encoding settings        : cabac=1 / ref=5 / deblock=1:-1:-1 / analyse=0x3:0x113 / me=umh / subme=10 / psy=1 / psy_rd=1.00:0.15 / mixed_ref=1 / me_range=48 / chroma_me=1 / trellis=2 / 8x8dct=1 / cqm=0 / deadzone=21,11 / fast_pskip=1 / chroma_qp_offset=-3 / threads=48 / lookahead_threads=4 / sliced_threads=0 / nr=0 / decimate=0 / interlaced=0 / bluray_compat=0 / constrained_intra=0 / bframes=3 / b_pyramid=2 / b_adapt=2 / b_bias=0 / direct=3 / weightb=1 / open_gop=0 / weightp=2 / keyint=250 / keyint_min=23 / scenecut=40 / intra_refresh=0 / rc_lookahead=50 / rc=crf / mbtree=1 / crf=18.0 / qcomp=0.60 / qpmin=0 / qpmax=69 / qpstep=4 / ip_ratio=1.40 / aq=1:1.00
Default            : Yes
Forced           : No

Audio #1
ID             : 2
ID in the original source medium   : 4352 (0x1100)
Format           : MLP FBA 16-ch
Format/Info          : Meridian Lossless Packing FBA with 16-channel presentation
Commercial name        : Dolby TrueHD with Dolby Atmos
Codec ID           : A_TRUEHD
Duration           : 1 h 43 min
Bit rate mode          : Variable
Bit rate           : 4 482 kb/s
Maximum bit rate         : 6 108 kb/s
Channel(s)           : 8 channels
Channel layout         : L R C LFE Ls Rs Lb Rb
Sampling rate          : 48.0 kHz
Frame rate           : 1 200.000 FPS (40 SPF)
Bit depth          : 24 bits
Compression mode         : Lossless
Stream size          : 3.25 GiB (8%)
Title            : TrueHD 7.1 Atmos
Language           : English
Default            : Yes
Forced           : No
Original source medium       : Blu-ray
Number of dynamic objects      : 13
Bed channel count        : 1 channel
Bed channel configuration      : LFE

Audio #2
ID             : 3
Format           : DTS XLL
Format/Info          : Digital Theater Systems
Commercial name        : DTS-HD Master Audio
Codec ID           : A_DTS
Duration           : 1 h 43 min
Bit rate mode          : Variable
Bit rate           : 3 422 kb/s
Channel(s)           : 8 channels
Channel layout         : C L R LFE Lb Rb Lss Rss
Sampling rate          : 48.0 kHz
Frame rate           : 93.750 FPS (512 SPF)
Bit depth          : 24 bits
Compression mode         : Lossless
Stream size          : 2.48 GiB (6%)
Title            : DTS-HD MA 7.1
Language           : English
Default            : No
Forced           : No

Audio #3
ID             : 4
ID in the original source medium   : 4352 (0x1100)
Format           : AC-3
Format/Info          : Audio Coding 3
Commercial name        : Dolby Digital
Codec ID           : A_AC3
Duration           : 1 h 43 min
Bit rate mode          : Constant
Bit rate           : 640 kb/s
Channel(s)           : 6 channels
Channel layout         : L R C LFE Ls Rs
Sampling rate          : 48.0 kHz
Frame rate           : 31.250 FPS (1536 SPF)
Compression mode         : Lossy
Stream size          : 475 MiB (1%)
Title            : DD 5.1
Language           : English
Service kind         : Complete Main
Default            : No
Forced           : No
Original source medium       : Blu-ray

Text #1
ID             : 5
Format           : UTF-8
Codec ID           : S_TEXT/UTF8
Codec ID/Info          : UTF-8 Plain Text
Duration           : 1 h 36 min
Bit rate           : 61 b/s
Count of elements        : 1213
Stream size          : 43.1 KiB (0%)
Language           : English
Default            : Yes
Forced           : No

Text #2
ID             : 6
Format           : UTF-8
Codec ID           : S_TEXT/UTF8
Codec ID/Info          : UTF-8 Plain Text
Duration           : 1 h 41 min
Bit rate           : 66 b/s
Count of elements        : 1478
Stream size          : 49.0 KiB (0%)
Title            : SDH
Language           : English
Default            : No
Forced           : No

Text #3
ID             : 7
ID in the original source medium   : 4768 (0x12A0)
Format           : PGS
Muxing mode          : zlib
Codec ID           : S_HDMV/PGS
Codec ID/Info          : Picture based subtitle format used on BDs/HD-DVDs
Duration           : 1 h 41 min
Bit rate           : 43.0 kb/s
Count of elements        : 2970
Stream size          : 31.2 MiB (0%)
Language           : English
Default            : No
Forced           : No
Original source medium       : Blu-ray

Text #4
ID             : 8
ID in the original source medium   : 4769 (0x12A1)
Format           : PGS
Muxing mode          : zlib
Codec ID           : S_HDMV/PGS
Codec ID/Info          : Picture based subtitle format used on BDs/HD-DVDs
Duration           : 1 h 36 min
Bit rate           : 29.2 kb/s
Count of elements        : 2094
Stream size          : 20.2 MiB (0%)
Language           : French
Default            : No
Forced           : No
Original source medium       : Blu-ray

Text #5
ID             : 9
ID in the original source medium   : 4770 (0x12A2)
Format           : PGS
Muxing mode          : zlib
Codec ID           : S_HDMV/PGS
Codec ID/Info          : Picture based subtitle format used on BDs/HD-DVDs
Duration           : 1 h 36 min
Bit rate           : 34.5 kb/s
Count of elements        : 2236
Stream size          : 23.8 MiB (0%)
Language           : Spanish
Default            : No
Forced           : No
Original source medium       : Blu-ray

Text #6
ID             : 10
ID in the original source medium   : 4771 (0x12A3)
Format           : PGS
Muxing mode          : zlib
Codec ID           : S_HDMV/PGS
Codec ID/Info          : Picture based subtitle format used on BDs/HD-DVDs
Duration           : 1 h 36 min
Bit rate           : 30.0 kb/s
Count of elements        : 1736
Stream size          : 20.8 MiB (0%)
Language           : Spanish
Default            : No
Forced           : No
Original source medium       : Blu-ray

Text #7
ID             : 11
ID in the original source medium   : 4772 (0x12A4)
Format           : PGS
Muxing mode          : zlib
Codec ID           : S_HDMV/PGS
Codec ID/Info          : Picture based subtitle format used on BDs/HD-DVDs
Duration           : 1 h 36 min
Bit rate           : 29.3 kb/s
Count of elements        : 1534
Stream size          : 20.2 MiB (0%)
Language           : German
Default            : No
Forced           : No
Original source medium       : Blu-ray

Text #8
ID             : 12
ID in the original source medium   : 4773 (0x12A5)
Format           : PGS
Muxing mode          : zlib
Codec ID           : S_HDMV/PGS
Codec ID/Info          : Picture based subtitle format used on BDs/HD-DVDs
Duration           : 1 h 36 min
Bit rate           : 28.5 kb/s
Count of elements        : 1524
Stream size          : 19.7 MiB (0%)
Language           : Italian
Default            : No
Forced           : No
Original source medium       : Blu-ray

Text #9
ID             : 13
ID in the original source medium   : 4774 (0x12A6)
Format           : PGS
Muxing mode          : zlib
Codec ID           : S_HDMV/PGS
Codec ID/Info          : Picture based subtitle format used on BDs/HD-DVDs
Duration           : 1 h 36 min
Bit rate           : 25.0 kb/s
Count of elements        : 2092
Stream size          : 17.2 MiB (0%)
Language           : Japanese
Default            : No
Forced           : No
Original source medium       : Blu-ray

Text #10
ID             : 14
ID in the original source medium   : 4775 (0x12A7)
Format           : PGS
Muxing mode          : zlib
Codec ID           : S_HDMV/PGS
Codec ID/Info          : Picture based subtitle format used on BDs/HD-DVDs
Duration           : 1 h 36 min
Bit rate           : 25.9 kb/s
Count of elements        : 1480
Stream size          : 17.8 MiB (0%)
Language           : Dutch
Default            : No
Forced           : No
Original source medium       : Blu-ray

Text #11
ID             : 15
ID in the original source medium   : 4776 (0x12A8)
Format           : PGS
Muxing mode          : zlib
Codec ID           : S_HDMV/PGS
Codec ID/Info          : Picture based subtitle format used on BDs/HD-DVDs
Duration           : 1 h 36 min
Bit rate           : 28.4 kb/s
Count of elements        : 1428
Stream size          : 19.6 MiB (0%)
Language           : Danish
Default            : No
Forced           : No
Original source medium       : Blu-ray

Text #12
ID             : 16
ID in the original source medium   : 4777 (0x12A9)
Format           : PGS
Muxing mode          : zlib
Codec ID           : S_HDMV/PGS
Codec ID/Info          : Picture based subtitle format used on BDs/HD-DVDs
Duration           : 1 h 36 min
Bit rate           : 27.9 kb/s
Count of elements        : 1528
Stream size          : 19.3 MiB (0%)
Language           : Finnish
Default            : No
Forced           : No
Original source medium       : Blu-ray

Text #13
ID             : 17
ID in the original source medium   : 4778 (0x12AA)
Format           : PGS
Muxing mode          : zlib
Codec ID           : S_HDMV/PGS
Codec ID/Info          : Picture based subtitle format used on BDs/HD-DVDs
Duration           : 1 h 36 min
Bit rate           : 25.2 kb/s
Count of elements        : 1554
Stream size          : 17.4 MiB (0%)
Language           : Norwegian
Default            : No
Forced           : No
Original source medium       : Blu-ray

Text #14
ID             : 18
ID in the original source medium   : 4779 (0x12AB)
Format           : PGS
Muxing mode          : zlib
Codec ID           : S_HDMV/PGS
Codec ID/Info          : Picture based subtitle format used on BDs/HD-DVDs
Duration           : 1 h 36 min
Bit rate           : 26.3 kb/s
Count of elements        : 1614
Stream size          : 18.2 MiB (0%)
Language           : Swedish
Default            : No
Forced           : No
Original source medium       : Blu-ray

Text #15
ID             : 19
ID in the original source medium   : 4780 (0x12AC)
Format           : PGS
Muxing mode          : zlib
Codec ID           : S_HDMV/PGS
Codec ID/Info          : Picture based subtitle format used on BDs/HD-DVDs
Duration           : 1 h 43 min
Bit rate           : 88.8 kb/s
Count of elements        : 4568
Stream size          : 65.8 MiB (0%)
Language           : English
Default            : No
Forced           : No
Original source medium       : Blu-ray

Text #16
ID             : 20
ID in the original source medium   : 4781 (0x12AD)
Format           : PGS
Muxing mode          : zlib
Codec ID           : S_HDMV/PGS
Codec ID/Info          : Picture based subtitle format used on BDs/HD-DVDs
Duration           : 1 h 43 min
Bit rate           : 64.4 kb/s
Count of elements        : 4174
Stream size          : 47.7 MiB (0%)
Language           : French
Default            : No
Forced           : No
Original source medium       : Blu-ray

Text #17
ID             : 21
ID in the original source medium   : 4782 (0x12AE)
Format           : PGS
Muxing mode          : zlib
Codec ID           : S_HDMV/PGS
Codec ID/Info          : Picture based subtitle format used on BDs/HD-DVDs
Duration           : 1 h 43 min
Bit rate           : 67.4 kb/s
Count of elements        : 4174
Stream size          : 50.0 MiB (0%)
Language           : Spanish
Default            : No
Forced           : No
Original source medium       : Blu-ray

Text #18
ID             : 22
ID in the original source medium   : 4783 (0x12AF)
Format           : PGS
Muxing mode          : zlib
Codec ID           : S_HDMV/PGS
Codec ID/Info          : Picture based subtitle format used on BDs/HD-DVDs
Duration           : 1 h 43 min
Bit rate           : 70.7 kb/s
Count of elements        : 4174
Stream size          : 52.4 MiB (0%)
Language           : Spanish
Default            : No
Forced           : No
Original source medium       : Blu-ray

Text #19
ID             : 23
ID in the original source medium   : 4784 (0x12B0)
Format           : PGS
Muxing mode          : zlib
Codec ID           : S_HDMV/PGS
Codec ID/Info          : Picture based subtitle format used on BDs/HD-DVDs
Duration           : 1 h 43 min
Bit rate           : 76.1 kb/s
Count of elements        : 4176
Stream size          : 56.4 MiB (0%)
Language           : German
Default            : No
Forced           : No
Original source medium       : Blu-ray

Text #20
ID             : 24
ID in the original source medium   : 4785 (0x12B1)
Format           : PGS
Muxing mode          : zlib
Codec ID           : S_HDMV/PGS
Codec ID/Info          : Picture based subtitle format used on BDs/HD-DVDs
Duration           : 1 h 43 min
Bit rate           : 55.0 kb/s
Count of elements        : 2832
Stream size          : 40.8 MiB (0%)
Language           : Italian
Default            : No
Forced           : No
Original source medium       : Blu-ray

Text #21
ID             : 25
ID in the original source medium   : 4786 (0x12B2)
Format           : PGS
Muxing mode          : zlib
Codec ID           : S_HDMV/PGS
Codec ID/Info          : Picture based subtitle format used on BDs/HD-DVDs
Duration           : 1 h 43 min
Bit rate           : 47.3 kb/s
Count of elements        : 2706
Stream size          : 35.1 MiB (0%)
Language           : Japanese
Default            : No
Forced           : No
Original source medium       : Blu-ray

Text #22
ID             : 26
ID in the original source medium   : 4787 (0x12B3)
Format           : PGS
Muxing mode          : zlib
Codec ID           : S_HDMV/PGS
Codec ID/Info          : Picture based subtitle format used on BDs/HD-DVDs
Duration           : 1 h 43 min
Bit rate           : 50.7 kb/s
Count of elements        : 2680
Stream size          : 37.6 MiB (0%)
Language           : Dutch
Default            : No
Forced           : No
Original source medium       : Blu-ray

Menu
00:00:00.000         : en:Chapter 01
00:05:34.125         : en:Chapter 02
00:09:45.293         : en:Chapter 03
00:14:06.804         : en:Chapter 04
00:20:41.281         : en:Chapter 05
00:28:53.356         : en:Chapter 06
00:34:07.795         : en:Chapter 07
00:41:12.761         : en:Chapter 08
00:46:28.660         : en:Chapter 09
00:49:37.557         : en:Chapter 10
00:57:14.681         : en:Chapter 11
01:03:34.101         : en:Chapter 12
01:07:25.041         : en:Chapter 13
01:12:09.283         : en:Chapter 14
01:16:46.476         : en:Chapter 15
01:22:06.588         : en:Chapter 16
01:28:49.365         : en:Chapter 17
01:34:23.699         : en:Chapter 18[/code]




                                                                  
                                                                                                                                                                                                                                                                                  Who.Framed.Roger.Rabbit.1988.2160p.BluRay.x264.8bit.SDR.DTS-HD.MA.TrueHD.7.1.Atmos-SWTYBLZ.torrent
回复

使用道具 举报

您需要登录后才可以回帖 登录 | 立即注册

本版积分规则

4k蓝光原盘高清论坛

GMT+8, 2021-11-27 17:34 , Processed in 0.096929 second(s), 30 queries .

Powered by Discuz! X3.4

Copyright © 2001-2021, Tencent Cloud.

快速回复 返回顶部 返回列表