请选择 进入手机版 | 继续访问电脑版

4k蓝光原盘高清论坛

 找回密码
 立即注册
搜索
热搜: 活动 交友 discuz
查看: 6|回复: 0

BJ单身日记/布雷吉特·琼斯的日记 Bridget.Jones.Diary.2001.2160p.BluRay.REMUX.HEVC ...

[复制链接]

888

主题

888

帖子

2664

积分

超级版主

Rank: 8Rank: 8

积分
2664
发表于 5 天前 | 显示全部楼层 |阅读模式
BJ单身日记/布雷吉特·琼斯的日记 Bridget.Jones.Diary.2001.2160p.BluRay.REMUX.HEVC.DTS-HD.MA.5.1                                                                                                                                                                              -->
[quote]帖子完整标题:BJ单身日记/布雷吉特·琼斯的日记 Bridget.Jones.Diary.2001.2160p.BluRay.REMUX.HEVC.DTS-HD.MA.5.1-FGT 44.93GB[/code]




◎译  名 BJ单身日记/布雷吉特·琼斯的日记
◎片  名 Bridget Jones's Diary
◎年  代 2001
◎产  地 英国,法国,美国,爱尔兰
◎类  别 喜剧 / 爱情
◎语  言 英语
◎上映日期 2001-04-04(英国)
◎豆瓣评分 7.5/10 from 197615 users
◎ 
◎片  长 97分钟
◎导  演 莎伦·马奎尔 Sharon Maguire
◎编  剧 理查德·柯蒂斯 Richard Curtis / 安德鲁·戴维斯 Andrew Davies / 海伦·费尔丁 Helen Fielding
◎主  演 蕾妮·齐薇格 Renée Zellweger
     科林·费尔斯 Colin Firth
     休·格兰特 Hugh Grant
     吉姆·布劳德本特 Jim Broadbent
     雪莉·亨德森 Shirley Henderson
     莎莉·菲利普斯 Sally Phillips
     詹姆斯·卡利斯 James Callis
     艾伯丝·戴维兹 Embeth Davidtz
     莎拉·亚历山大 Sarah Alexander
     杰玛·琼斯 Gemma Jones
     多莉·韦尔斯 Dolly Wells
     霍纳尔·布莱克曼 Honor Blackman
     西莉亚·伊姆里 Celia Imrie
     克里斯平 伯汉姆-卡特 Crispin Bonham-Carter
     詹姆斯·福克纳 James Faulkner
     克莱尔·斯金纳 Claire Skinner
     萨曼·拉什代 Salman Rushdie
     杰弗里·阿切尔 Jeffrey Archer
     费莉西蒂·蒙塔古 Felicity Montagu
     朱利安·巴恩斯 Julian Barnes
     埃玛·阿莫斯 Emma Amos
     保罗·布洛克 Paul Brooke
     Lisa Barbuscia Lisa Barbuscia
     内尔·皮尔森 Neil Pearson
     帕特里克·巴罗 Patrick Barlow
      Christopher Kouros
      Stefan Booth
     Paul Ross Paul Ross
     Ben Peyton Ben Peyton
     查米恩·梅 Charmian May
     Ben Illis Ben Illis
     Christine Hewett Christine Hewett
     唐纳德·道格拉斯 Donald Douglas
     盖瑞斯·马克 Gareth Marks
     马克·林伍德 Mark Lingwood

◎标  签 爱情 | 喜剧 | 英国 | ColinFirth | HughGrant | 英国电影 | 愛情 | 电影

◎简  介

  布里奇特?琼斯(蕾妮?齐维格 饰)是一个32岁的单身女子。她的工作及生活都是平淡无奇的,她唯一想得到一份真挚的爱情,就算有一众好友在身边及时安慰,布里奇特还是没有好过点。新的一年里,她要过一种新的生活。她选择用日记把自己生活里的点点滴滴都记录下来,她开始变得喜悦起来。
  
  这时在她与风流倜傥的上司丹尼尔?克里弗(休?格兰特 饰)产生了感情,丹尼尔原来早与女友订婚,使布里奇特伤心不已。高傲却真实的马克?达西(科林?菲尔斯 饰)也表示对她的爱慕之情。布里奇特周旋在两个男人之间,不知如何选择。

◎获奖情况

  第74届奥斯卡金像奖 ?(2002)
  最佳女主角(提名) 蕾妮·齐薇格
  
  第59届金球奖 ?(2002)
  电影类最佳音乐/喜剧片(提名)
  电影类音乐/喜剧片最佳女主角(提名) 蕾妮·齐薇格
[quote]Video
ID             : 1
ID in the original source medium   : 4113 (0x1011)
Format           : HEVC
Format/Info          : High Efficiency Video Coding
Format profile         : Main @High
HDR format           : Dolby Vision, Version 1.0, dvhe.07.06, BL+EL+RPU, Blu-ray compatible / SMPTE ST 2086, HDR10 compatible
Codec ID           : V_MPEGH/ISO/HEVC
Duration           : 1 h 36 min
Bit rate           : 60.1 Mb/s
Width            : 3 840 pixels
Height           : 2 160 pixels
Display aspect ratio       : 16:9
Frame rate mode        : Constant
Frame rate           : 24.000 FPS
Color space          : YUV
Chroma subsampling       : 4:2:0 (Type 2)
Bit depth          : 10 bits
Bits/(Pixel*Frame)       : 0.302
Stream size          : 40.7 GiB (91%)
Language           : English
Default            : No
Forced           : No
Color range          : Limited
Color primaries        : BT.2020
Transfer characteristics     : PQ
Matrix coefficients        : BT.2020 non-constant
Mastering display color primaries  : BT.2020
Mastering display luminance    : min: 0.0001 cd/m2, max: 1000 cd/m2
Original source medium       : Blu-ray

Audio #1
ID             : 2
ID in the original source medium   : 4353 (0x1101)
Format           : DTS XLL
Format/Info          : Digital Theater Systems
Commercial name        : DTS-HD Master Audio
Codec ID           : A_DTS
Duration           : 1 h 36 min
Bit rate mode          : Variable
Bit rate           : 2 087 kb/s
Channel(s)           : 6 channels
Channel layout         : C L R Ls Rs LFE
Sampling rate          : 48.0 kHz
Frame rate           : 93.750 FPS (512 SPF)
Bit depth          : 24 bits
Compression mode         : Lossless
Stream size          : 1.41 GiB (3%)
Title            : DTS-HD MA 5.1
Language           : English
Default            : Yes
Forced           : No
Original source medium       : Blu-ray

Audio #2
ID             : 3
Format           : AC-3
Format/Info          : Audio Coding 3
Commercial name        : Dolby Digital
Codec ID           : A_AC3
Duration           : 1 h 36 min
Bit rate mode          : Constant
Bit rate           : 640 kb/s
Channel(s)           : 6 channels
Channel layout         : L R C LFE Ls Rs
Sampling rate          : 48.0 kHz
Frame rate           : 31.250 FPS (1536 SPF)
Compression mode         : Lossy
Stream size          : 444 MiB (1%)
Title            : DD 5.1
Language           : English
Service kind         : Complete Main
Default            : No
Forced           : No

Audio #3
ID             : 4
ID in the original source medium   : 4352 (0x1100)
Format           : DTS XLL
Format/Info          : Digital Theater Systems
Commercial name        : DTS-HD Master Audio
Codec ID           : A_DTS
Duration           : 1 h 36 min
Bit rate mode          : Variable
Bit rate           : 2 713 kb/s
Channel(s)           : 6 channels
Channel layout         : C L R Ls Rs LFE
Sampling rate          : 48.0 kHz
Frame rate           : 93.750 FPS (512 SPF)
Bit depth          : 24 bits
Compression mode         : Lossless
Delay relative to video      : 125 ms
Stream size          : 1.84 GiB (4%)
Title            : DTS-HD MA 5.1
Language           : French
Default            : No
Forced           : No
Original source medium       : Blu-ray

Audio #4
ID             : 5
ID in the original source medium   : 4354 (0x1102)
Format           : DTS
Format/Info          : Digital Theater Systems
Codec ID           : A_DTS
Duration           : 1 h 36 min
Bit rate mode          : Constant
Bit rate           : 768 kb/s
Channel(s)           : 2 channels
Channel layout         : L R
Sampling rate          : 48.0 kHz
Frame rate           : 93.750 FPS (512 SPF)
Bit depth          : 16 bits
Compression mode         : Lossy
Stream size          : 533 MiB (1%)
Title            : DTS 2.0
Language           : English
Default            : No
Forced           : No
Original source medium       : Blu-ray

Text #1
ID             : 6
Format           : UTF-8
Codec ID           : S_TEXT/UTF8
Codec ID/Info          : UTF-8 Plain Text
Duration           : 1 h 36 min
Bit rate           : 79 b/s
Count of elements        : 1461
Stream size          : 56.6 KiB (0%)
Language           : English
Default            : Yes
Forced           : No

Text #2
ID             : 7
ID in the original source medium   : 4768 (0x12A0)
Format           : PGS
Muxing mode          : zlib
Codec ID           : S_HDMV/PGS
Codec ID/Info          : Picture based subtitle format used on BDs/HD-DVDs
Duration           : 40 min 16 s
Bit rate           : 394 b/s
Count of elements        : 14
Stream size          : 116 KiB (0%)
Language           : French
Default            : No
Forced           : No
Original source medium       : Blu-ray

Text #3
ID             : 8
ID in the original source medium   : 4769 (0x12A1)
Format           : PGS
Muxing mode          : zlib
Codec ID           : S_HDMV/PGS
Codec ID/Info          : Picture based subtitle format used on BDs/HD-DVDs
Duration           : 1 h 35 min
Bit rate           : 32.3 kb/s
Count of elements        : 2356
Stream size          : 21.9 MiB (0%)
Language           : French
Default            : No
Forced           : No
Original source medium       : Blu-ray

Text #4
ID             : 9
ID in the original source medium   : 4770 (0x12A2)
Format           : PGS
Muxing mode          : zlib
Codec ID           : S_HDMV/PGS
Codec ID/Info          : Picture based subtitle format used on BDs/HD-DVDs
Duration           : 1 h 36 min
Bit rate           : 35.8 kb/s
Count of elements        : 3438
Stream size          : 24.8 MiB (0%)
Language           : French
Default            : No
Forced           : No
Original source medium       : Blu-ray

Text #5
ID             : 10
ID in the original source medium   : 4771 (0x12A3)
Format           : PGS
Muxing mode          : zlib
Codec ID           : S_HDMV/PGS
Codec ID/Info          : Picture based subtitle format used on BDs/HD-DVDs
Duration           : 1 h 36 min
Bit rate           : 36.2 kb/s
Count of elements        : 2316
Stream size          : 25.0 MiB (0%)
Language           : French
Default            : No
Forced           : No
Original source medium       : Blu-ray

Menu
00:00:00.000         : en:Chapter 01
00:07:24.750         : en:Chapter 02
00:16:11.000         : en:Chapter 03
00:23:27.166         : en:Chapter 04
00:31:25.000         : en:Chapter 05
00:40:19.916         : en:Chapter 06
00:48:57.625         : en:Chapter 07
00:57:03.875         : en:Chapter 08
01:04:00.000         : en:Chapter 09
01:13:57.500         : en:Chapter 10
01:23:25.000         : en:Chapter 11
01:32:03.416         : en:Chapter 12[/code]





                                                                  
                                                                                                                                                                                                                                                                                 

本帖子中包含更多资源

您需要 登录 才可以下载或查看,没有帐号?立即注册

x
回复

使用道具 举报

您需要登录后才可以回帖 登录 | 立即注册

本版积分规则

4k蓝光原盘高清论坛

GMT+8, 2021-11-27 17:41 , Processed in 0.076659 second(s), 28 queries .

Powered by Discuz! X3.4

Copyright © 2001-2021, Tencent Cloud.

快速回复 返回顶部 返回列表