请选择 进入手机版 | 继续访问电脑版

4k蓝光原盘高清论坛

 找回密码
 立即注册
搜索
热搜: 活动 交友 discuz
查看: 12|回复: 0

黑神锅传奇 The.Black.Cauldron.1985.2160p.DSNP.WEB-DL.DDP5.1.DV.MKV.x265-SiGLA 9. ...

[复制链接]

885

主题

885

帖子

2655

积分

超级版主

Rank: 8Rank: 8

积分
2655
发表于 5 天前 | 显示全部楼层 |阅读模式
黑神锅传奇 The.Black.Cauldron.1985.2160p.DSNP.WEB-DL.DDP5.1.DV.MKV.x265-SiGLA 9.37GB                                                                                                                                                                              -->
[quote]帖子完整标题:黑神锅传奇 The.Black.Cauldron.1985.2160p.DSNP.WEB-DL.DDP5.1.DV.MKV.x265-SiGLA 9.37GB[/code]





◎译  名 黑神锅传奇/Taran and the Magic Cauldron/黑神魔
◎片  名 The Black Cauldron
◎年  代 1985
◎产  地 美国
◎类  别 动画 / 家庭 / 奇幻 / 冒险
◎语  言 英语
◎上映日期 1985-07-24(美国) / 1986-10-19(中国大陆)
◎豆瓣评分 6.4/10 from 351 users
◎ 
◎片  长 80 分钟
◎导  演 泰德·伯曼 Ted Berman
◎编  剧 罗斯玛丽·安妮·西森 Rosemary Anne Sisson / 罗伊·爱德华·迪士尼 Roy Edward Disney / 万斯·格里 Vance Gerry / Al Wilson Al Wilson / Peter Young Peter Young / 阿特·史蒂文斯 Art Stevens / 罗恩·克莱蒙兹 Ron Clements / 约翰·马斯克 John Musker / 泰德·伯曼 Ted Berman / 乔·哈尔 Joe Hale / Lloyd Alexander Lloyd Alexander / Roy Morita Roy Morita / 伯尼·马丁森 Burny Mattinson
◎主  演 弗雷迪·琼斯 Freddie Jones
     奈杰尔·霍桑 Nigel Hawthorne
     阿瑟·马利特 Arthur Malet
     约翰·拜纳 John Byner
     Brandon Call Brandon Call
     韦恩·艾尔温 Wayne Allwine
     约翰·赫特 John Hurt
     Susan Sheridan Susan Sheridan
     罗伊·爱德华·迪士尼 Roy Edward Disney
     约翰·休斯顿 John Huston
     罗斯玛丽·安妮·西森 Rosemary Anne Sisson
     彼得·雷纳迪 Peter Renaday
     Eda Reiss Merin Eda Reiss Merin
     Adele Malis-Morey Adele Malis-Morey
     James Almanzar James Almanzar
     菲尔·方德卡罗 Phil Fondacaro

◎标  签 动画 | 迪士尼 | 美国 | 1985 | 迪士尼经典动画 | Disney | 美国动画 | 迪斯尼

◎简  介

  《黑神锅传奇》The Black Cauldron (Disney Gold Classic Collection) (1985)是迪斯尼经典动画里最另类的一部作品。剧情叙述一位名叫塔兰(Taran)的少年,为了维护家乡和平,而与魔王The Horned King对抗,阻止其利用黑神锅的魔力危害世人。本片也是迪士尼动画第一次利用计算机来辅助拍摄,不过只有短短几个画面而已。
  
  本片在某些地区上映时采用另一片名“Taran and the Magic Cauldron”,而且片中有一些迪士尼动画里少见的血腥画面,与以往迪士尼动画风格似乎有些不同,因此本片被定位为只针对青少年观众,迥异于其他适合阖家观赏的迪士尼电影。本片也是迪士尼动画第一次藉由电脑来辅助拍摄,不过只有短短几个画面而已,到了隔年的《妙妙探》,迪士尼才第一次用电脑制作出一个独立的场景。本片是迪士尼经典动画里最另类的一部作品,因为走的不是传统家庭路线,故迪士尼对本片是否要推出录影带一直心存观望,况且还有一些版权等的争议…不过经过内部几番沟通后,本片终于在1997年底首度在英国发行录影带,但是心细的影迷立刻发现有几幕被删掉了!为此还向迪士尼提出抗议…至于美国则在1998年首度发行录影带,发行的则是当初完整的版本。
[quote]Video
ID             : 1
Format           : HEVC
Format/Info          : High Efficiency Video Coding
Format profile         : Main @High
HDR format           : Dolby Vision, Version 1.0, dvhe.05.06, BL+RPU
Codec ID           : V_MPEGH/ISO/HEVC
Duration           : 1 h 20 min
Bit rate           : 16.5 Mb/s
Width            : 3 840 pixels
Height           : 2 160 pixels
Display aspect ratio       : 16:9
Frame rate mode        : Constant
Frame rate           : 23.976 (24000/1001/189150) FPS
Color space          : YUV
Chroma subsampling       : 4:2:0
Bit depth          : 10 bits
Bits/(Pixel*Frame)       : 0.083
Stream size          : 9.22 GiB (98%)
Default            : Yes
Forced           : No
Color range          : Full

Audio
ID             : 2
Format           : E-AC-3
Format/Info          : Enhanced AC-3
Commercial name        : Dolby Digital Plus
Codec ID           : A_EAC3
Duration           : 1 h 20 min
Bit rate mode          : Constant
Bit rate           : 256 kb/s
Channel(s)           : 6 channels
Channel layout         : L R C LFE Ls Rs
Sampling rate          : 48.0 kHz
Frame rate           : 31.250 FPS (1536 SPF)
Compression mode         : Lossy
Stream size          : 147 MiB (2%)
Language           : English
Service kind         : Complete Main
Default            : Yes
Forced           : No

Text #1
ID             : 3
Format           : UTF-8
Codec ID           : S_TEXT/UTF8
Codec ID/Info          : UTF-8 Plain Text
Duration           : 1 h 15 min
Bit rate           : 42 b/s
Count of elements        : 893
Stream size          : 23.7 KiB (0%)
Language           : English
Default            : No
Forced           : No

Text #2
ID             : 4
Format           : UTF-8
Codec ID           : S_TEXT/UTF8
Codec ID/Info          : UTF-8 Plain Text
Duration           : 1 h 15 min
Bit rate           : 48 b/s
Count of elements        : 984
Stream size          : 26.7 KiB (0%)
Title            : SDH
Language           : English
Default            : No
Forced           : No

Text #3
ID             : 5
Format           : UTF-8
Codec ID           : S_TEXT/UTF8
Codec ID/Info          : UTF-8 Plain Text
Duration           : 1 h 15 min
Bit rate           : 43 b/s
Count of elements        : 695
Stream size          : 23.9 KiB (0%)
Language           : Danish
Default            : No
Forced           : No

Text #4
ID             : 6
Format           : UTF-8
Codec ID           : S_TEXT/UTF8
Codec ID/Info          : UTF-8 Plain Text
Duration           : 1 h 15 min
Bit rate           : 44 b/s
Count of elements        : 699
Stream size          : 24.8 KiB (0%)
Language           : German
Default            : No
Forced           : No

Text #5
ID             : 7
Format           : UTF-8
Codec ID           : S_TEXT/UTF8
Codec ID/Info          : UTF-8 Plain Text
Duration           : 1 h 15 min
Bit rate           : 46 b/s
Count of elements        : 813
Stream size          : 25.9 KiB (0%)
Title            : Latin American
Language           : Spanish
Default            : No
Forced           : No

Text #6
ID             : 8
Format           : UTF-8
Codec ID           : S_TEXT/UTF8
Codec ID/Info          : UTF-8 Plain Text
Duration           : 1 h 15 min
Bit rate           : 40 b/s
Count of elements        : 699
Stream size          : 22.5 KiB (0%)
Title            : European
Language           : Spanish
Default            : No
Forced           : No

Text #7
ID             : 9
Format           : UTF-8
Codec ID           : S_TEXT/UTF8
Codec ID/Info          : UTF-8 Plain Text
Duration           : 1 h 15 min
Bit rate           : 42 b/s
Count of elements        : 833
Stream size          : 23.8 KiB (0%)
Language           : Finnish
Default            : No
Forced           : No

Text #8
ID             : 10
Format           : UTF-8
Codec ID           : S_TEXT/UTF8
Codec ID/Info          : UTF-8 Plain Text
Duration           : 5 s 880 ms
Bit rate           : 27 b/s
Count of elements        : 1
Stream size          : 20.0 Bytes (0%)
Title            : Brazilian (Forced)
Language           : Portuguese
Default            : No
Forced           : No

Text #9
ID             : 11
Format           : UTF-8
Codec ID           : S_TEXT/UTF8
Codec ID/Info          : UTF-8 Plain Text
Duration           : 1 h 15 min
Bit rate           : 43 b/s
Count of elements        : 896
Stream size          : 24.0 KiB (0%)
Title            : Brazilian
Language           : Portuguese
Default            : No
Forced           : No

Text #10
ID             : 12
Format           : UTF-8
Codec ID           : S_TEXT/UTF8
Codec ID/Info          : UTF-8 Plain Text
Duration           : 1 h 15 min
Bit rate           : 46 b/s
Count of elements        : 702
Stream size          : 25.6 KiB (0%)
Language           : Italian
Default            : No
Forced           : No

Text #11
ID             : 13
Format           : UTF-8
Codec ID           : S_TEXT/UTF8
Codec ID/Info          : UTF-8 Plain Text
Duration           : 1 h 15 min
Bit rate           : 37 b/s
Count of elements        : 858
Stream size          : 20.9 KiB (0%)
Language           : Japanese
Default            : No
Forced           : No

Text #12
ID             : 14
Format           : UTF-8
Codec ID           : S_TEXT/UTF8
Codec ID/Info          : UTF-8 Plain Text
Duration           : 1 h 15 min
Bit rate           : 42 b/s
Count of elements        : 861
Stream size          : 23.7 KiB (0%)
Language           : Korean
Default            : No
Forced           : No

Text #13
ID             : 15
Format           : UTF-8
Codec ID           : S_TEXT/UTF8
Codec ID/Info          : UTF-8 Plain Text
Duration           : 1 h 15 min
Bit rate           : 35 b/s
Count of elements        : 639
Stream size          : 19.4 KiB (0%)
Language           : Dutch
Default            : No
Forced           : No

Text #14
ID             : 16
Format           : UTF-8
Codec ID           : S_TEXT/UTF8
Codec ID/Info          : UTF-8 Plain Text
Duration           : 1 h 15 min
Bit rate           : 40 b/s
Count of elements        : 700
Stream size          : 22.5 KiB (0%)
Language           : Norwegian
Default            : No
Forced           : No

Text #15
ID             : 17
Format           : UTF-8
Codec ID           : S_TEXT/UTF8
Codec ID/Info          : UTF-8 Plain Text
Duration           : 1 h 15 min
Bit rate           : 46 b/s
Count of elements        : 871
Stream size          : 25.5 KiB (0%)
Language           : Portuguese
Default            : No
Forced           : No

Text #16
ID             : 18
Format           : UTF-8
Codec ID           : S_TEXT/UTF8
Codec ID/Info          : UTF-8 Plain Text
Duration           : 1 h 15 min
Bit rate           : 43 b/s
Count of elements        : 696
Stream size          : 23.9 KiB (0%)
Language           : Swedish
Default            : No
Forced           : No

Text #17
ID             : 19
Format           : UTF-8
Codec ID           : S_TEXT/UTF8
Codec ID/Info          : UTF-8 Plain Text
Duration           : 1 h 19 min
Bit rate           : 38 b/s
Count of elements        : 885
Stream size          : 22.2 KiB (0%)
Title            : Hong Kong
Language           : Chinese
Default            : No
Forced           : No

Text #18
ID             : 20
Format           : UTF-8
Codec ID           : S_TEXT/UTF8
Codec ID/Info          : UTF-8 Plain Text
Duration           : 1 h 19 min
Bit rate           : 37 b/s
Count of elements        : 885
Stream size          : 21.8 KiB (0%)
Title            : Simplified
Language           : Chinese
Default            : No
Forced           : No

Text #19
ID             : 21
Format           : UTF-8
Codec ID           : S_TEXT/UTF8
Codec ID/Info          : UTF-8 Plain Text
Duration           : 1 h 15 min
Bit rate           : 43 b/s
Count of elements        : 848
Stream size          : 24.1 KiB (0%)
Title            : Traditional
Language           : Chinese
Default            : No
Forced           : No[/code]





                                                                  
                                                                                                                                                                                                                                                                                 

本帖子中包含更多资源

您需要 登录 才可以下载或查看,没有帐号?立即注册

x
回复

使用道具 举报

您需要登录后才可以回帖 登录 | 立即注册

本版积分规则

4k蓝光原盘高清论坛

GMT+8, 2021-11-27 15:38 , Processed in 19.697926 second(s), 96 queries .

Powered by Discuz! X3.4

Copyright © 2001-2021, Tencent Cloud.

快速回复 返回顶部 返回列表