请选择 进入手机版 | 继续访问电脑版

4k蓝光原盘高清论坛

 找回密码
 立即注册
搜索
热搜: 活动 交友 discuz
查看: 9|回复: 0

圆梦巨人/吹梦巨人 The.BFG.2016.2160p.DSNP.WEB-DL.DDP5.1.Atmos.DV.MP4.x265-DVSUX ...

[复制链接]

885

主题

885

帖子

2655

积分

超级版主

Rank: 8Rank: 8

积分
2655
发表于 5 天前 | 显示全部楼层 |阅读模式
圆梦巨人/吹梦巨人 The.BFG.2016.2160p.DSNP.WEB-DL.DDP5.1.Atmos.DV.MP4.x265-DVSUX 14.19GB                                                                                                                                                                              -->
[quote]帖子完整标题:圆梦巨人/吹梦巨人 The.BFG.2016.2160p.DSNP.WEB-DL.DDP5.1.Atmos.DV.MP4.x265-DVSUX 14.19GB[/code]




◎译  名 圆梦巨人/吹梦巨人(港)/好心眼儿巨人
◎片  名 The BFG
◎年  代 2016
◎产  地 美国,英国
◎类  别 奇幻 / 冒险
◎语  言 英语
◎上映日期 2016-05-14(戛纳电影节) / 2016-07-01(美国) / 2016-10-14(中国大陆)
◎豆瓣评分 6.8/10 from 84978 users
◎ 
◎片  长 117分钟
◎导  演 史蒂文·斯皮尔伯格 Steven Spielberg
◎编  剧 梅丽莎·马西森 Melissa Mathison / 罗尔德·达尔 Roald Dahl
◎主  演 鲁比·巴恩希尔 Ruby Barnhill
     马克·里朗斯 Mark Rylance
     比尔·哈德尔 Bill Hader
     丽贝卡·豪尔 Rebecca Hall
     拉菲·斯波 Rafe Spall
     佩内洛普·威尔顿 Penelope Wilton
     杰梅奈·克莱门特 Jemaine Clement
     亚当·戈德利 Adam Godley
     迈克尔·亚当思韦特 Michael Adamthwaite
     丹尼尔·巴孔 Daniel Bacon
     马特·弗里沃 Matt Frewer
     约翰·埃梅特·特雷西 John Emmet Tracy
     黄忆慈 Yici Huang
     加布里埃尔·罗斯 Gabrielle Rose
     黑格·萨瑟兰 Haig Sutherland
     奥拉维尔·达里·奥拉夫松 ólafur Darri ólafsson
     黄磊 Lei Huang

◎标  签 奇幻 | 儿童 | 动画 | 迪士尼 | 冒险 | 美国 | 温情 | 英国

◎简  介

  生活在孤儿院的小女孩苏菲(鲁比·巴恩希尔 Ruby Barnhill 饰)总是闷闷不乐。某天的凌晨三点,她独自趴在窗口守望长夜,却无意中见到一个身形巨大的巨人(马克·里朗斯 Mark Rylance 饰)。巨人被发现后惊慌失措,匆忙中抓起苏菲一路飞奔,回到了他所在的巨人国。幸运的是这个被称作好心眼儿的巨人人如其名,他不像其他同类一样以“人豆子”为食,只吃水果和蔬菜,而且他还会把寻找到的美梦送入孩子们的梦想。这也算是对同类暴行的一种补偿。兴许是拥有共同的孤独感和善良,小小的苏菲和高大的好心眼儿慢慢熟络,并彼此信任,他们成为了毫无芥蒂和隐藏的好朋友……
  
  本片根据著名儿童文学作家罗尔德?达尔的同名原著改编。

◎获奖情况

  第44届动画安妮奖 ?(2017)
  最佳真人电影动画效果(提名)
  
  第21届金卫星奖 ?(2017)
  电影部门最佳原创配乐(提名) 约翰·威廉姆斯
  电影部门最佳视觉效果(提名) 凯文·安德鲁·史密斯?/?肯恩·麦高?/?乔·莱特瑞
  
  第15届华盛顿影评人协会奖 ?(2016)
  最佳动作捕捉表演 马克·里朗斯
[quote]Video
ID             : 1
Format           : HEVC
Format/Info          : High Efficiency Video Coding
Format profile         : Main @High
HDR format           : Dolby Vision, Version 1.0, dvhe.05.06, BL+RPU
Codec ID           : dvhe
Codec ID/Info          : High Efficiency Video Coding with Dolby Vision
Duration           : 1 h 57 min
Bit rate           : 16.5 Mb/s
Width            : 3 840 pixels
Height           : 2 160 pixels
Display aspect ratio       : 16:9
Frame rate mode        : Constant
Frame rate           : 23.976 (24000/1001/189150) FPS
Color space          : YUV
Chroma subsampling       : 4:2:0
Bit depth          : 10 bits
Bits/(Pixel*Frame)       : 0.083
Stream size          : 13.6 GiB (96%)
Default            : Yes
Alternate group        : 1
Encoded date         : UTC 2021-11-21 13:53:41
Tagged date          : UTC 2021-11-21 14:01:12
Color range          : Full
Codec configuration box      : hvcC+dvcC

Audio
ID             : 2
Format           : E-AC-3 JOC
Format/Info          : Enhanced AC-3 with Joint Object Coding
Commercial name        : Dolby Digital Plus with Dolby Atmos
Codec ID           : ec-3
Duration           : 1 h 57 min
Bit rate mode          : Constant
Bit rate           : 768 kb/s
Maximum bit rate         : 811 kb/s
Channel(s)           : 6 channels
Channel layout         : L R C LFE Ls Rs
Sampling rate          : 48.0 kHz
Frame rate           : 31.250 FPS (1536 SPF)
Compression mode         : Lossy
Stream size          : 646 MiB (4%)
Title            : English
Language           : English
Service kind         : Complete Main
Default            : Yes
Alternate group        : 1
Tagged date          : UTC 2021-11-21 14:01:12
Complexity index         : Not present / 16
Number of dynamic objects      : 15
Bed channel count        : 1 channel
Bed channel configuration      : LFE

Text #1
ID             : 3
Format           : Timed Text
Codec ID           : tx3g
Duration           : 1 h 49 min
Bit rate mode          : Variable
Bit rate           : 36 b/s
Stream size          : 28.6 KiB (0%)
Title            : English
Language           : English
Forced           : No
Encoded date         : UTC 2021-11-21 14:01:11
Tagged date          : UTC 2021-11-21 14:01:12

Text #2
ID             : 4
Format           : Timed Text
Codec ID           : tx3g
Duration           : 1 h 49 min
Bit rate mode          : Variable
Bit rate           : 42 b/s
Stream size          : 34.0 KiB (0%)
Title            : English
Language           : English
Forced           : No
Encoded date         : UTC 2021-11-21 14:01:11
Tagged date          : UTC 2021-11-21 14:01:12

Text #3
ID             : 5
Format           : Timed Text
Codec ID           : tx3g
Duration           : 1 h 49 min
Bit rate mode          : Variable
Bit rate           : 30 b/s
Stream size          : 24.2 KiB (0%)
Title            : Chinese-Cantonese
Language           : Chinese
Forced           : No
Encoded date         : UTC 2021-11-21 14:01:11
Tagged date          : UTC 2021-11-21 14:01:12

Text #4
ID             : 6
Format           : Timed Text
Codec ID           : tx3g
Duration           : 1 h 57 min
Bit rate mode          : Variable
Bit rate           : 28 b/s
Stream size          : 24.3 KiB (0%)
Title            : Chinese-Simplified
Language           : Chinese
Forced           : No
Encoded date         : UTC 2021-11-21 14:01:11
Tagged date          : UTC 2021-11-21 14:01:12

Text #5
ID             : 7
Format           : Timed Text
Codec ID           : tx3g
Duration           : 1 h 49 min
Bit rate mode          : Variable
Bit rate           : 31 b/s
Stream size          : 24.6 KiB (0%)
Title            : Chinese-Traditional
Language           : Chinese
Forced           : No
Encoded date         : UTC 2021-11-21 14:01:11
Tagged date          : UTC 2021-11-21 14:01:12

Text #6
ID             : 8
Format           : Timed Text
Codec ID           : tx3g
Duration           : 1 h 57 min
Bit rate mode          : Variable
Bit rate           : 32 b/s
Stream size          : 27.7 KiB (0%)
Title            : Danish
Language           : Danish
Forced           : No
Encoded date         : UTC 2021-11-21 14:01:11
Tagged date          : UTC 2021-11-21 14:01:12

Text #7
ID             : 9
Format           : Timed Text
Codec ID           : tx3g
Duration           : 1 h 57 min
Bit rate mode          : Variable
Bit rate           : 31 b/s
Stream size          : 26.9 KiB (0%)
Title            : Dutch
Language           : Dutch
Forced           : No
Encoded date         : UTC 2021-11-21 14:01:11
Tagged date          : UTC 2021-11-21 14:01:12

Text #8
ID             : 10
Format           : Timed Text
Codec ID           : tx3g
Duration           : 1 h 57 min
Bit rate mode          : Variable
Bit rate           : 29 b/s
Stream size          : 24.9 KiB (0%)
Title            : Finnish
Language           : Finnish
Forced           : No
Encoded date         : UTC 2021-11-21 14:01:11
Tagged date          : UTC 2021-11-21 14:01:12

Text #9
ID             : 11
Format           : Timed Text
Codec ID           : tx3g
Duration           : 1 h 57 min
Bit rate mode          : Variable
Bit rate           : 33 b/s
Stream size          : 28.3 KiB (0%)
Title            : French
Language           : French
Forced           : No
Encoded date         : UTC 2021-11-21 14:01:11
Tagged date          : UTC 2021-11-21 14:01:12

Text #10
ID             : 12
Format           : Timed Text
Codec ID           : tx3g
Duration           : 1 h 49 min
Bit rate mode          : Variable
Bit rate           : 46 b/s
Stream size          : 36.6 KiB (0%)
Title            : French-CA
Language           : French
Forced           : No
Encoded date         : UTC 2021-11-21 14:01:11
Tagged date          : UTC 2021-11-21 14:01:12

Text #11
ID             : 13
Format           : Timed Text
Codec ID           : tx3g
Duration           : 1 h 49 min
Bit rate mode          : Variable
Bit rate           : 52 b/s
Stream size          : 41.8 KiB (0%)
Title            : French-CA
Language           : French
Forced           : No
Encoded date         : UTC 2021-11-21 14:01:11
Tagged date          : UTC 2021-11-21 14:01:12

Text #12
ID             : 14
Format           : Timed Text
Codec ID           : tx3g
Duration           : 1 h 49 min
Bit rate mode          : Variable
Bit rate           : 35 b/s
Stream size          : 28.0 KiB (0%)
Title            : German
Language           : German
Forced           : No
Encoded date         : UTC 2021-11-21 14:01:12
Tagged date          : UTC 2021-11-21 14:01:12

Text #13
ID             : 15
Format           : Timed Text
Codec ID           : tx3g
Duration           : 1 h 57 min
Bit rate mode          : Variable
Bit rate           : 32 b/s
Stream size          : 27.9 KiB (0%)
Title            : Italian
Language           : Italian
Forced           : No
Encoded date         : UTC 2021-11-21 14:01:12
Tagged date          : UTC 2021-11-21 14:01:12

Text #14
ID             : 16
Format           : Timed Text
Codec ID           : tx3g
Duration           : 1 h 57 min
Bit rate mode          : Variable
Bit rate           : 34 b/s
Stream size          : 28.9 KiB (0%)
Title            : Japanese
Language           : Japanese
Forced           : No
Encoded date         : UTC 2021-11-21 14:01:12
Tagged date          : UTC 2021-11-21 14:01:12

Text #15
ID             : 17
Format           : Timed Text
Codec ID           : tx3g
Duration           : 1 h 49 min
Bit rate mode          : Variable
Bit rate           : 37 b/s
Stream size          : 29.8 KiB (0%)
Title            : Korean
Language           : Korean
Forced           : No
Encoded date         : UTC 2021-11-21 14:01:12
Tagged date          : UTC 2021-11-21 14:01:12

Text #16
ID             : 18
Format           : Timed Text
Codec ID           : tx3g
Duration           : 1 h 57 min
Bit rate mode          : Variable
Bit rate           : 31 b/s
Stream size          : 26.4 KiB (0%)
Title            : Norwegian
Language           : Norwegian
Forced           : No
Encoded date         : UTC 2021-11-21 14:01:12
Tagged date          : UTC 2021-11-21 14:01:12

Text #17
ID             : 19
Format           : Timed Text
Codec ID           : tx3g
Duration           : 1 h 57 min
Bit rate mode          : Variable
Bit rate           : 32 b/s
Stream size          : 27.4 KiB (0%)
Title            : Portuguese
Language           : Portuguese
Forced           : No
Encoded date         : UTC 2021-11-21 14:01:12
Tagged date          : UTC 2021-11-21 14:01:12

Text #18
ID             : 20
Format           : Timed Text
Codec ID           : tx3g
Duration           : 1 h 49 min
Bit rate mode          : Variable
Bit rate           : 35 b/s
Stream size          : 28.4 KiB (0%)
Title            : Spanish
Language           : Spanish
Forced           : No
Encoded date         : UTC 2021-11-21 14:01:12
Tagged date          : UTC 2021-11-21 14:01:12

Text #19
ID             : 21
Format           : Timed Text
Codec ID           : tx3g
Duration           : 1 h 57 min
Bit rate mode          : Variable
Bit rate           : 32 b/s
Stream size          : 27.5 KiB (0%)
Title            : Spanish-EU
Language           : Spanish
Forced           : No
Encoded date         : UTC 2021-11-21 14:01:12
Tagged date          : UTC 2021-11-21 14:01:12

Text #20
ID             : 22
Format           : Timed Text
Codec ID           : tx3g
Duration           : 1 h 57 min
Bit rate mode          : Variable
Bit rate           : 30 b/s
Stream size          : 26.1 KiB (0%)
Title            : Swedish
Language           : Swedish
Forced           : No
Encoded date         : UTC 2021-11-21 14:01:12
Tagged date          : UTC 2021-11-21 14:01:12[/code]





                                                                  
                                                                                                                                                                                                                                                                                 

本帖子中包含更多资源

您需要 登录 才可以下载或查看,没有帐号?立即注册

x
回复

使用道具 举报

您需要登录后才可以回帖 登录 | 立即注册

本版积分规则

4k蓝光原盘高清论坛

GMT+8, 2021-11-27 16:01 , Processed in 0.080767 second(s), 28 queries .

Powered by Discuz! X3.4

Copyright © 2001-2021, Tencent Cloud.

快速回复 返回顶部 返回列表