请选择 进入手机版 | 继续访问电脑版

4k蓝光原盘高清论坛

 找回密码
 立即注册
搜索
热搜: 活动 交友 discuz
查看: 10|回复: 0

圆梦巨人/吹梦巨人 The.BFG.2016.2160p.DSNP.WEB-DL.DTS-HD.MA.TrueHD.7.1.Atmos.DV.M ...

[复制链接]

886

主题

886

帖子

2658

积分

超级版主

Rank: 8Rank: 8

积分
2658
发表于 5 天前 | 显示全部楼层 |阅读模式
圆梦巨人/吹梦巨人 The.BFG.2016.2160p.DSNP.WEB-DL.DTS-HD.MA.TrueHD.7.1.Atmos.DV.MKV.x265-                                                                                                                                                                              -->
[quote]帖子完整标题:圆梦巨人/吹梦巨人 The.BFG.2016.2160p.DSNP.WEB-DL.DTS-HD.MA.TrueHD.7.1.Atmos.DV.MKV.x265-DVSUX 21.53GB[/code]





◎译  名 圆梦巨人/吹梦巨人(港)/好心眼儿巨人
◎片  名 The BFG
◎年  代 2016
◎产  地 美国,英国
◎类  别 奇幻 / 冒险
◎语  言 英语
◎上映日期 2016-05-14(戛纳电影节) / 2016-07-01(美国) / 2016-10-14(中国大陆)
◎豆瓣评分 6.8/10 from 84978 users
◎ 
◎片  长 117分钟
◎导  演 史蒂文·斯皮尔伯格 Steven Spielberg
◎编  剧 梅丽莎·马西森 Melissa Mathison / 罗尔德·达尔 Roald Dahl
◎主  演 鲁比·巴恩希尔 Ruby Barnhill
     马克·里朗斯 Mark Rylance
     比尔·哈德尔 Bill Hader
     丽贝卡·豪尔 Rebecca Hall
     拉菲·斯波 Rafe Spall
     佩内洛普·威尔顿 Penelope Wilton
     杰梅奈·克莱门特 Jemaine Clement
     亚当·戈德利 Adam Godley
     迈克尔·亚当思韦特 Michael Adamthwaite
     丹尼尔·巴孔 Daniel Bacon
     马特·弗里沃 Matt Frewer
     约翰·埃梅特·特雷西 John Emmet Tracy
     黄忆慈 Yici Huang
     加布里埃尔·罗斯 Gabrielle Rose
     黑格·萨瑟兰 Haig Sutherland
     奥拉维尔·达里·奥拉夫松 ólafur Darri ólafsson
     黄磊 Lei Huang

◎标  签 奇幻 | 儿童 | 动画 | 迪士尼 | 冒险 | 美国 | 温情 | 英国

◎简  介

  生活在孤儿院的小女孩苏菲(鲁比·巴恩希尔 Ruby Barnhill 饰)总是闷闷不乐。某天的凌晨三点,她独自趴在窗口守望长夜,却无意中见到一个身形巨大的巨人(马克·里朗斯 Mark Rylance 饰)。巨人被发现后惊慌失措,匆忙中抓起苏菲一路飞奔,回到了他所在的巨人国。幸运的是这个被称作好心眼儿的巨人人如其名,他不像其他同类一样以“人豆子”为食,只吃水果和蔬菜,而且他还会把寻找到的美梦送入孩子们的梦想。这也算是对同类暴行的一种补偿。兴许是拥有共同的孤独感和善良,小小的苏菲和高大的好心眼儿慢慢熟络,并彼此信任,他们成为了毫无芥蒂和隐藏的好朋友……
  
  本片根据著名儿童文学作家罗尔德?达尔的同名原著改编。

◎获奖情况

  第44届动画安妮奖 ?(2017)
  最佳真人电影动画效果(提名)
  
  第21届金卫星奖 ?(2017)
  电影部门最佳原创配乐(提名) 约翰·威廉姆斯
  电影部门最佳视觉效果(提名) 凯文·安德鲁·史密斯?/?肯恩·麦高?/?乔·莱特瑞
  
  第15届华盛顿影评人协会奖 ?(2016)
  最佳动作捕捉表演 马克·里朗斯
[quote]Video
ID             : 1
Format           : HEVC
Format/Info          : High Efficiency Video Coding
Format profile         : Main @High
HDR format           : Dolby Vision, Version 1.0, dvhe.05.06, BL+RPU
Codec ID           : V_MPEGH/ISO/HEVC
Duration           : 1 h 57 min
Bit rate           : 16.5 Mb/s
Width            : 3 840 pixels
Height           : 2 160 pixels
Display aspect ratio       : 16:9
Frame rate mode        : Constant
Frame rate           : 23.976 (24000/1001/189150) FPS
Color space          : YUV
Chroma subsampling       : 4:2:0
Bit depth          : 10 bits
Bits/(Pixel*Frame)       : 0.083
Stream size          : 13.6 GiB (63%)
Default            : Yes
Forced           : No
Color range          : Full

Audio #1
ID             : 2
Format           : MLP FBA 16-ch
Format/Info          : Meridian Lossless Packing FBA with 16-channel presentation
Commercial name        : Dolby TrueHD with Dolby Atmos
Codec ID           : A_TRUEHD
Duration           : 1 h 57 min
Bit rate mode          : Variable
Bit rate           : 4 583 kb/s
Maximum bit rate         : 7 287 kb/s
Channel(s)           : 8 channels
Channel layout         : L R C LFE Ls Rs Lb Rb
Sampling rate          : 48.0 kHz
Frame rate           : 1 200.000 FPS (40 SPF)
Compression mode         : Lossless
Delay relative to video      : 30 s 500 ms
Stream size          : 3.75 GiB (17%)
Title            : TrueHD 7.1 Atmos
Language           : English
Default            : Yes
Forced           : No
Number of dynamic objects      : 11
Bed channel count        : 1 channel
Bed channel configuration      : LFE

Audio #2
ID             : 3
Format           : DTS XLL
Format/Info          : Digital Theater Systems
Commercial name        : DTS-HD Master Audio
Codec ID           : A_DTS
Duration           : 1 h 57 min
Bit rate mode          : Variable
Bit rate           : 3 681 kb/s
Channel(s)           : 8 channels
Channel layout         : C L R LFE Lb Rb Lss Rss
Sampling rate          : 48.0 kHz
Frame rate           : 93.750 FPS (512 SPF)
Bit depth          : 24 bits
Compression mode         : Lossless
Delay relative to video      : 30 s 500 ms
Stream size          : 3.01 GiB (14%)
Title            : DTS-HD MA 7.1
Language           : English
Default            : Yes
Forced           : No

Audio #3
ID             : 4
Format           : AC-3
Format/Info          : Audio Coding 3
Commercial name        : Dolby Digital
Format settings        : Dolby Surround EX
Codec ID           : A_AC3
Duration           : 1 h 57 min
Bit rate mode          : Constant
Bit rate           : 640 kb/s
Channel(s)           : 6 channels
Channel layout         : L R C LFE Ls Rs
Sampling rate          : 48.0 kHz
Frame rate           : 31.250 FPS (1536 SPF)
Compression mode         : Lossy
Delay relative to video      : 30 s 500 ms
Stream size          : 536 MiB (2%)
Title            : DD 5.1
Language           : English
Service kind         : Complete Main
Default            : No
Forced           : No

Audio #4
ID             : 5
Format           : E-AC-3 JOC
Format/Info          : Enhanced AC-3 with Joint Object Coding
Commercial name        : Dolby Digital Plus with Dolby Atmos
Codec ID           : A_EAC3
Duration           : 1 h 57 min
Bit rate mode          : Constant
Bit rate           : 768 kb/s
Channel(s)           : 6 channels
Channel layout         : L R C LFE Ls Rs
Sampling rate          : 48.0 kHz
Frame rate           : 31.250 FPS (1536 SPF)
Bit depth          : 32 bits
Compression mode         : Lossy
Stream size          : 646 MiB (3%)
Language           : English
Service kind         : Complete Main
Default            : No
Forced           : No
Complexity index         : 16
Number of dynamic objects      : 15
Bed channel count        : 1 channel
Bed channel configuration      : LFE

Text #1
ID             : 6
Format           : UTF-8
Codec ID           : S_TEXT/UTF8
Codec ID/Info          : UTF-8 Plain Text
Duration           : 1 h 45 min
Bit rate           : 32 b/s
Count of elements        : 980
Stream size          : 25.0 KiB (0%)
Language           : English
Default            : Yes
Forced           : No

Text #2
ID             : 7
Format           : UTF-8
Codec ID           : S_TEXT/UTF8
Codec ID/Info          : UTF-8 Plain Text
Duration           : 1 h 48 min
Bit rate           : 37 b/s
Count of elements        : 1239
Stream size          : 29.3 KiB (0%)
Title            : SDH
Language           : English
Default            : No
Forced           : No

Text #3
ID             : 8
Format           : UTF-8
Codec ID           : S_TEXT/UTF8
Codec ID/Info          : UTF-8 Plain Text
Duration           : 1 h 45 min
Bit rate           : 42 b/s
Count of elements        : 1126
Stream size          : 32.8 KiB (0%)
Title            : Canadian
Language           : French
Default            : No
Forced           : No

Text #4
ID             : 9
Format           : UTF-8
Codec ID           : S_TEXT/UTF8
Codec ID/Info          : UTF-8 Plain Text
Duration           : 1 h 47 min
Bit rate           : 46 b/s
Count of elements        : 1379
Stream size          : 37.0 KiB (0%)
Title            : Canadian (SDH)
Language           : French
Default            : No
Forced           : No

Text #5
ID             : 10
Format           : UTF-8
Codec ID           : S_TEXT/UTF8
Codec ID/Info          : UTF-8 Plain Text
Duration           : 1 h 55 min
Bit rate           : 28 b/s
Count of elements        : 893
Stream size          : 24.4 KiB (0%)
Language           : Danish
Default            : No
Forced           : No

Text #6
ID             : 11
Format           : UTF-8
Codec ID           : S_TEXT/UTF8
Codec ID/Info          : UTF-8 Plain Text
Duration           : 1 h 46 min
Bit rate           : 31 b/s
Count of elements        : 880
Stream size          : 24.7 KiB (0%)
Language           : German
Default            : No
Forced           : No

Text #7
ID             : 12
Format           : UTF-8
Codec ID           : S_TEXT/UTF8
Codec ID/Info          : UTF-8 Plain Text
Duration           : 1 h 48 min
Bit rate           : 31 b/s
Count of elements        : 881
Stream size          : 25.2 KiB (0%)
Title            : Latin American
Language           : Spanish
Default            : No
Forced           : No

Text #8
ID             : 13
Format           : UTF-8
Codec ID           : S_TEXT/UTF8
Codec ID/Info          : UTF-8 Plain Text
Duration           : 1 h 55 min
Bit rate           : 28 b/s
Count of elements        : 889
Stream size          : 24.2 KiB (0%)
Title            : European
Language           : Spanish
Default            : No
Forced           : No

Text #9
ID             : 14
Format           : UTF-8
Codec ID           : S_TEXT/UTF8
Codec ID/Info          : UTF-8 Plain Text
Duration           : 1 h 55 min
Bit rate           : 25 b/s
Count of elements        : 885
Stream size          : 21.6 KiB (0%)
Language           : Finnish
Default            : No
Forced           : No

Text #10
ID             : 15
Format           : UTF-8
Codec ID           : S_TEXT/UTF8
Codec ID/Info          : UTF-8 Plain Text
Duration           : 1 h 55 min
Bit rate           : 29 b/s
Count of elements        : 882
Stream size          : 25.0 KiB (0%)
Language           : French
Default            : No
Forced           : No

Text #11
ID             : 16
Format           : UTF-8
Codec ID           : S_TEXT/UTF8
Codec ID/Info          : UTF-8 Plain Text
Duration           : 1 h 55 min
Bit rate           : 29 b/s
Count of elements        : 893
Stream size          : 24.6 KiB (0%)
Language           : Italian
Default            : No
Forced           : No

Text #12
ID             : 17
Format           : UTF-8
Codec ID           : S_TEXT/UTF8
Codec ID/Info          : UTF-8 Plain Text
Duration           : 1 h 55 min
Bit rate           : 30 b/s
Count of elements        : 834
Stream size          : 25.9 KiB (0%)
Language           : Japanese
Default            : No
Forced           : No

Text #13
ID             : 18
Format           : UTF-8
Codec ID           : S_TEXT/UTF8
Codec ID/Info          : UTF-8 Plain Text
Duration           : 1 h 48 min
Bit rate           : 33 b/s
Count of elements        : 880
Stream size          : 26.8 KiB (0%)
Language           : Korean
Default            : No
Forced           : No

Text #14
ID             : 19
Format           : UTF-8
Codec ID           : S_TEXT/UTF8
Codec ID/Info          : UTF-8 Plain Text
Duration           : 1 h 55 min
Bit rate           : 28 b/s
Count of elements        : 877
Stream size          : 23.6 KiB (0%)
Language           : Dutch
Default            : No
Forced           : No

Text #15
ID             : 20
Format           : UTF-8
Codec ID           : S_TEXT/UTF8
Codec ID/Info          : UTF-8 Plain Text
Duration           : 1 h 55 min
Bit rate           : 27 b/s
Count of elements        : 891
Stream size          : 23.1 KiB (0%)
Language           : Norwegian
Default            : No
Forced           : No

Text #16
ID             : 21
Format           : UTF-8
Codec ID           : S_TEXT/UTF8
Codec ID/Info          : UTF-8 Plain Text
Duration           : 1 h 55 min
Bit rate           : 28 b/s
Count of elements        : 891
Stream size          : 24.1 KiB (0%)
Language           : Portuguese
Default            : No
Forced           : No

Text #17
ID             : 22
Format           : UTF-8
Codec ID           : S_TEXT/UTF8
Codec ID/Info          : UTF-8 Plain Text
Duration           : 1 h 55 min
Bit rate           : 26 b/s
Count of elements        : 893
Stream size          : 22.8 KiB (0%)
Language           : Swedish
Default            : No
Forced           : No

Text #18
ID             : 23
Format           : UTF-8
Codec ID           : S_TEXT/UTF8
Codec ID/Info          : UTF-8 Plain Text
Duration           : 1 h 48 min
Bit rate           : 26 b/s
Count of elements        : 878
Stream size          : 20.9 KiB (0%)
Title            : Hong Kong
Language           : Chinese
Default            : No
Forced           : No

Text #19
ID             : 24
Format           : UTF-8
Codec ID           : S_TEXT/UTF8
Codec ID/Info          : UTF-8 Plain Text
Duration           : 1 h 56 min
Bit rate           : 24 b/s
Count of elements        : 859
Stream size          : 21.0 KiB (0%)
Title            : Simplified
Language           : Chinese
Default            : No
Forced           : No

Text #20
ID             : 25
Format           : UTF-8
Codec ID           : S_TEXT/UTF8
Codec ID/Info          : UTF-8 Plain Text
Duration           : 1 h 48 min
Bit rate           : 26 b/s
Count of elements        : 901
Stream size          : 21.2 KiB (0%)
Title            : Traditional
Language           : Chinese
Default            : No
Forced           : No

Text #21
ID             : 26
Format           : UTF-8
Codec ID           : S_TEXT/UTF8
Codec ID/Info          : UTF-8 Plain Text
Duration           : 1 h 45 min
Bit rate           : 32 b/s
Count of elements        : 980
Stream size          : 25.0 KiB (0%)
Language           : English
Default            : No
Forced           : No

Text #22
ID             : 27
Format           : UTF-8
Codec ID           : S_TEXT/UTF8
Codec ID/Info          : UTF-8 Plain Text
Duration           : 1 h 48 min
Bit rate           : 37 b/s
Count of elements        : 1239
Stream size          : 29.3 KiB (0%)
Title            : SDH
Language           : English
Default            : No
Forced           : No

Text #23
ID             : 28
Format           : UTF-8
Codec ID           : S_TEXT/UTF8
Codec ID/Info          : UTF-8 Plain Text
Duration           : 1 h 45 min
Bit rate           : 42 b/s
Count of elements        : 1126
Stream size          : 32.8 KiB (0%)
Title            : Canadian
Language           : French
Default            : No
Forced           : No

Text #24
ID             : 29
Format           : UTF-8
Codec ID           : S_TEXT/UTF8
Codec ID/Info          : UTF-8 Plain Text
Duration           : 1 h 47 min
Bit rate           : 46 b/s
Count of elements        : 1379
Stream size          : 37.0 KiB (0%)
Title            : Canadian (SDH)
Language           : French
Default            : No
Forced           : No

Text #25
ID             : 30
Format           : UTF-8
Codec ID           : S_TEXT/UTF8
Codec ID/Info          : UTF-8 Plain Text
Duration           : 1 h 55 min
Bit rate           : 28 b/s
Count of elements        : 893
Stream size          : 24.4 KiB (0%)
Language           : Danish
Default            : No
Forced           : No

Text #26
ID             : 31
Format           : UTF-8
Codec ID           : S_TEXT/UTF8
Codec ID/Info          : UTF-8 Plain Text
Duration           : 1 h 46 min
Bit rate           : 31 b/s
Count of elements        : 880
Stream size          : 24.7 KiB (0%)
Language           : German
Default            : No
Forced           : No

Text #27
ID             : 32
Format           : UTF-8
Codec ID           : S_TEXT/UTF8
Codec ID/Info          : UTF-8 Plain Text
Duration           : 1 h 48 min
Bit rate           : 31 b/s
Count of elements        : 881
Stream size          : 25.2 KiB (0%)
Title            : Latin American
Language           : Spanish
Default            : No
Forced           : No

Text #28
ID             : 33
Format           : UTF-8
Codec ID           : S_TEXT/UTF8
Codec ID/Info          : UTF-8 Plain Text
Duration           : 1 h 55 min
Bit rate           : 28 b/s
Count of elements        : 889
Stream size          : 24.2 KiB (0%)
Title            : European
Language           : Spanish
Default            : No
Forced           : No

Text #29
ID             : 34
Format           : UTF-8
Codec ID           : S_TEXT/UTF8
Codec ID/Info          : UTF-8 Plain Text
Duration           : 1 h 55 min
Bit rate           : 25 b/s
Count of elements        : 885
Stream size          : 21.6 KiB (0%)
Language           : Finnish
Default            : No
Forced           : No

Text #30
ID             : 35
Format           : UTF-8
Codec ID           : S_TEXT/UTF8
Codec ID/Info          : UTF-8 Plain Text
Duration           : 1 h 55 min
Bit rate           : 29 b/s
Count of elements        : 882
Stream size          : 25.0 KiB (0%)
Language           : French
Default            : No
Forced           : No

Text #31
ID             : 36
Format           : UTF-8
Codec ID           : S_TEXT/UTF8
Codec ID/Info          : UTF-8 Plain Text
Duration           : 1 h 55 min
Bit rate           : 29 b/s
Count of elements        : 893
Stream size          : 24.6 KiB (0%)
Language           : Italian
Default            : No
Forced           : No

Text #32
ID             : 37
Format           : UTF-8
Codec ID           : S_TEXT/UTF8
Codec ID/Info          : UTF-8 Plain Text
Duration           : 1 h 55 min
Bit rate           : 30 b/s
Count of elements        : 834
Stream size          : 25.9 KiB (0%)
Language           : Japanese
Default            : No
Forced           : No

Text #33
ID             : 38
Format           : UTF-8
Codec ID           : S_TEXT/UTF8
Codec ID/Info          : UTF-8 Plain Text
Duration           : 1 h 48 min
Bit rate           : 33 b/s
Count of elements        : 880
Stream size          : 26.8 KiB (0%)
Language           : Korean
Default            : No
Forced           : No

Text #34
ID             : 39
Format           : UTF-8
Codec ID           : S_TEXT/UTF8
Codec ID/Info          : UTF-8 Plain Text
Duration           : 1 h 55 min
Bit rate           : 28 b/s
Count of elements        : 877
Stream size          : 23.6 KiB (0%)
Language           : Dutch
Default            : No
Forced           : No

Text #35
ID             : 40
Format           : UTF-8
Codec ID           : S_TEXT/UTF8
Codec ID/Info          : UTF-8 Plain Text
Duration           : 1 h 55 min
Bit rate           : 27 b/s
Count of elements        : 891
Stream size          : 23.1 KiB (0%)
Language           : Norwegian
Default            : No
Forced           : No

Text #36
ID             : 41
Format           : UTF-8
Codec ID           : S_TEXT/UTF8
Codec ID/Info          : UTF-8 Plain Text
Duration           : 1 h 55 min
Bit rate           : 28 b/s
Count of elements        : 891
Stream size          : 24.1 KiB (0%)
Language           : Portuguese
Default            : No
Forced           : No

Text #37
ID             : 42
Format           : UTF-8
Codec ID           : S_TEXT/UTF8
Codec ID/Info          : UTF-8 Plain Text
Duration           : 1 h 55 min
Bit rate           : 26 b/s
Count of elements        : 893
Stream size          : 22.8 KiB (0%)
Language           : Swedish
Default            : No
Forced           : No

Text #38
ID             : 43
Format           : UTF-8
Codec ID           : S_TEXT/UTF8
Codec ID/Info          : UTF-8 Plain Text
Duration           : 1 h 48 min
Bit rate           : 26 b/s
Count of elements        : 878
Stream size          : 20.9 KiB (0%)
Title            : Hong Kong
Language           : Chinese
Default            : No
Forced           : No

Text #39
ID             : 44
Format           : UTF-8
Codec ID           : S_TEXT/UTF8
Codec ID/Info          : UTF-8 Plain Text
Duration           : 1 h 56 min
Bit rate           : 24 b/s
Count of elements        : 859
Stream size          : 21.0 KiB (0%)
Title            : Simplified
Language           : Chinese
Default            : No
Forced           : No

Text #40
ID             : 45
Format           : UTF-8
Codec ID           : S_TEXT/UTF8
Codec ID/Info          : UTF-8 Plain Text
Duration           : 1 h 48 min
Bit rate           : 26 b/s
Count of elements        : 901
Stream size          : 21.2 KiB (0%)
Title            : Traditional
Language           : Chinese
Default            : No
Forced           : No[/code]





                                                                  
                                                                                                                                                                                                                                                                                 

本帖子中包含更多资源

您需要 登录 才可以下载或查看,没有帐号?立即注册

x
回复

使用道具 举报

您需要登录后才可以回帖 登录 | 立即注册

本版积分规则

4k蓝光原盘高清论坛

GMT+8, 2021-11-27 16:21 , Processed in 0.090314 second(s), 28 queries .

Powered by Discuz! X3.4

Copyright © 2001-2021, Tencent Cloud.

快速回复 返回顶部 返回列表