请选择 进入手机版 | 继续访问电脑版

4k蓝光原盘高清论坛

 找回密码
 立即注册
搜索
热搜: 活动 交友 discuz
查看: 4|回复: 0

人体异形/变形邪魔 Invasion.of.the.Body.Snatchers.1978.2160p.BluRay.REMUX.HEVC.DT ...

[复制链接]

888

主题

888

帖子

2664

积分

超级版主

Rank: 8Rank: 8

积分
2664
发表于 6 天前 | 显示全部楼层 |阅读模式
人体异形/变形邪魔 Invasion.of.the.Body.Snatchers.1978.2160p.BluRay.REMUX.HEVC.DTS-HD.MA.                                                                                                                                                                              -->
[quote]帖子完整标题:人体异形/变形邪魔 Invasion.of.the.Body.Snatchers.1978.2160p.BluRay.REMUX.HEVC.DTS-HD.MA.5.1-FGT 75.81GB[/code]





◎译  名 人体异形/变形邪魔/天外夺命花
◎片  名 Invasion of the Body Snatchers
◎年  代 1978
◎产  地 美国
◎类  别 科幻 / 悬疑 / 恐怖
◎语  言 英语
◎上映日期 1978-12-20
◎豆瓣评分 6.8/10 from 1403 users
◎ 
◎片  长 115 分钟
◎导  演 菲利普·考夫曼 Philip Kaufman
◎编  剧 W·D·里克特 W.D. Richter / 杰克·芬尼 Jack Finney
◎主  演 唐纳德·萨瑟兰 Donald Sutherland
     伦纳德·尼莫伊 Leonard Nimoy
     布鲁克·亚当斯 Brooke Adams
     罗丝·考夫曼 Rose Kaufman
     菲利普·考夫曼 Philip Kaufman
     唐·希格尔 Don Siegel

◎标  签 科幻 | 美国 | 恐怖 | 惊悚 | 1978 | 美国电影 | 1970s | 悬疑

◎简  介

  一场大雨过后,平静的城市里,植物上的水滴中正萌发出奇怪的生物……
  
  供职于卫生署的伊丽莎白(Brooke Adams 饰)在郊外采集到一株小型植物,她向丈夫杰弗里解释这很可能是新发现的物种。与此同时,伊丽莎白的同事马修(唐纳德?萨瑟兰 Donald Sutherland 饰)正因为一丝不苟的执法而遭到报复。第二天,伊丽莎白惊奇的发现杰弗里行为反常,举止木讷,伊丽莎白请求马修的帮助,随后他们发现有更多人状态发生了变化,伊丽莎白更目击杰弗里与一群陌生人接头,不久,有多人死于身体变异,他们周身萌发出白色的须状物,形同植物。马修向政府反映当地的生物危机,然而只得到冷漠的回应,人群的异化正在扩散,伊丽莎白和马修处境孤立,但仍然试图拯救城市……
[quote]Video
ID             : 1
ID in the original source medium   : 4113 (0x1011)
Format           : HEVC
Format/Info          : High Efficiency Video Coding
Format profile         : Main @High
HDR format           : Dolby Vision, Version 1.0, dvhe.07.06, BL+EL+RPU, Blu-ray compatible / SMPTE ST 2086, HDR10 compatible
Codec ID           : V_MPEGH/ISO/HEVC
Duration           : 1 h 55 min
Bit rate           : 84.9 Mb/s
Width            : 3 840 pixels
Height           : 2 160 pixels
Display aspect ratio       : 16:9
Frame rate mode        : Constant
Frame rate           : 24.000 FPS
Color space          : YUV
Chroma subsampling       : 4:2:0 (Type 2)
Bit depth          : 10 bits
Bits/(Pixel*Frame)       : 0.427
Stream size          : 68.5 GiB (90%)
Language           : English
Default            : No
Forced           : No
Color range          : Limited
Color primaries        : BT.2020
Transfer characteristics     : PQ
Matrix coefficients        : BT.2020 non-constant
Mastering display color primaries  : Display P3
Mastering display luminance    : min: 0.0001 cd/m2, max: 1000 cd/m2
Maximum Content Light Level    : 1000 cd/m2
Maximum Frame-Average Light Level  : 492 cd/m2
Original source medium       : Blu-ray

Audio #1
ID             : 2
ID in the original source medium   : 4352 (0x1100)
Format           : DTS XLL
Format/Info          : Digital Theater Systems
Commercial name        : DTS-HD Master Audio
Codec ID           : A_DTS
Duration           : 1 h 55 min
Bit rate mode          : Variable
Bit rate           : 3 355 kb/s
Channel(s)           : 6 channels
Channel layout         : C L R Ls Rs LFE
Sampling rate          : 48.0 kHz
Frame rate           : 93.750 FPS (512 SPF)
Bit depth          : 24 bits
Compression mode         : Lossless
Stream size          : 2.70 GiB (4%)
Title            : DTS-HD MA 5.1
Language           : English
Default            : Yes
Forced           : No
Original source medium       : Blu-ray

Audio #2
ID             : 3
Format           : AC-3
Format/Info          : Audio Coding 3
Commercial name        : Dolby Digital
Codec ID           : A_AC3
Duration           : 1 h 55 min
Bit rate mode          : Constant
Bit rate           : 640 kb/s
Channel(s)           : 6 channels
Channel layout         : L R C LFE Ls Rs
Sampling rate          : 48.0 kHz
Frame rate           : 31.250 FPS (1536 SPF)
Compression mode         : Lossy
Stream size          : 528 MiB (1%)
Title            : DD 5.1
Language           : English
Service kind         : Complete Main
Default            : No
Forced           : No

Audio #3
ID             : 4
ID in the original source medium   : 4353 (0x1101)
Format           : DTS XLL
Format/Info          : Digital Theater Systems
Commercial name        : DTS-HD Master Audio
Codec ID           : A_DTS
Duration           : 1 h 55 min
Bit rate mode          : Variable
Bit rate           : 1 991 kb/s
Channel(s)           : 2 channels
Channel layout         : L R
Sampling rate          : 48.0 kHz
Frame rate           : 93.750 FPS (512 SPF)
Bit depth          : 24 bits
Compression mode         : Lossless
Stream size          : 1.60 GiB (2%)
Title            : DTS-HD MA 2.0
Language           : English
Default            : No
Forced           : No
Original source medium       : Blu-ray

Audio #4
ID             : 5
ID in the original source medium   : 4354 (0x1102)
Format           : DTS XLL
Format/Info          : Digital Theater Systems
Commercial name        : DTS-HD Master Audio
Codec ID           : A_DTS
Duration           : 1 h 55 min
Bit rate mode          : Variable
Bit rate           : 1 557 kb/s
Channel(s)           : 2 channels
Channel layout         : L R
Sampling rate          : 48.0 kHz
Frame rate           : 93.750 FPS (512 SPF)
Bit depth          : 16 bits
Compression mode         : Lossless
Stream size          : 1.26 GiB (2%)
Title            : DTS-HD MA 2.0
Language           : English
Default            : No
Forced           : No
Original source medium       : Blu-ray

Audio #5
ID             : 6
ID in the original source medium   : 4355 (0x1103)
Format           : DTS XLL
Format/Info          : Digital Theater Systems
Commercial name        : DTS-HD Master Audio
Codec ID           : A_DTS
Duration           : 1 h 55 min
Bit rate mode          : Variable
Bit rate           : 1 563 kb/s
Channel(s)           : 2 channels
Channel layout         : L R
Sampling rate          : 48.0 kHz
Frame rate           : 93.750 FPS (512 SPF)
Bit depth          : 16 bits
Compression mode         : Lossless
Stream size          : 1.26 GiB (2%)
Title            : DTS-HD MA 2.0
Language           : English
Default            : No
Forced           : No
Original source medium       : Blu-ray

Text #1
ID             : 7
Format           : UTF-8
Codec ID           : S_TEXT/UTF8
Codec ID/Info          : UTF-8 Plain Text
Duration           : 1 h 46 min
Bit rate           : 45 b/s
Count of elements        : 951
Stream size          : 35.7 KiB (0%)
Title            : SRT
Language           : English
Default            : Yes
Forced           : No

Text #2
ID             : 8
ID in the original source medium   : 4768 (0x12A0)
Format           : PGS
Muxing mode          : zlib
Codec ID           : S_HDMV/PGS
Codec ID/Info          : Picture based subtitle format used on BDs/HD-DVDs
Duration           : 1 h 49 min
Bit rate           : 24.0 kb/s
Count of elements        : 1932
Stream size          : 18.8 MiB (0%)
Language           : English
Default            : No
Forced           : No
Original source medium       : Blu-ray

Menu
00:00:00.000         : en:Chapter 01
00:07:14.791         : en:Chapter 02
00:22:21.958         : en:Chapter 03
00:36:21.250         : en:Chapter 04
00:45:11.416         : en:Chapter 05
00:52:27.958         : en:Chapter 06
01:07:12.458         : en:Chapter 07
01:21:36.166         : en:Chapter 08
01:26:40.583         : en:Chapter 09
01:43:04.458         : en:Chapter 10
01:55:22.416         : en:Chapter 11[/code]





                                                                  
                                                                                                                                                                                                                                                                                 

本帖子中包含更多资源

您需要 登录 才可以下载或查看,没有帐号?立即注册

x
回复

使用道具 举报

您需要登录后才可以回帖 登录 | 立即注册

本版积分规则

4k蓝光原盘高清论坛

GMT+8, 2021-11-27 17:36 , Processed in 0.083367 second(s), 28 queries .

Powered by Discuz! X3.4

Copyright © 2001-2021, Tencent Cloud.

快速回复 返回顶部 返回列表