请选择 进入手机版 | 继续访问电脑版

4k蓝光原盘高清论坛

 找回密码
 立即注册
搜索
热搜: 活动 交友 discuz
查看: 6|回复: 0

糖果人/糖魔怪客 Candyman.2021.2160p.BluRay.REMUX.HEVC.DTS-HD.MA.TrueHD.7.1.Atmos ...

[复制链接]

887

主题

887

帖子

2661

积分

超级版主

Rank: 8Rank: 8

积分
2661
发表于 2021-11-19 08:21:29 | 显示全部楼层 |阅读模式
糖果人/糖魔怪客 Candyman.2021.2160p.BluRay.REMUX.HEVC.DTS-HD.MA.TrueHD.7.1.Atmos-FGT 39                                                                                                                                                                              -->
[quote]帖子完整标题:糖果人/糖魔怪客 Candyman.2021.2160p.BluRay.REMUX.HEVC.DTS-HD.MA.TrueHD.7.1.Atmos-FGT 39.96GB[/code]





◎译  名 糖果人/糖魔怪客(港)
◎片  名 Candyman
◎年  代 2021
◎产  地 加拿大,美国
◎类  别 惊悚 / 恐怖
◎语  言 英语
◎上映日期 2021-08-27(美国)
◎豆瓣评分 5.4/10 from 6650 users
◎ 
◎片  长 91分钟
◎导  演 尼娅·达科斯塔 Nia DaCosta
◎编  剧 乔丹·皮尔 Jordan Peele / 温·罗森菲尔德 Win Rosenfeld / 尼娅·达科斯塔 Nia DaCosta / 克莱夫·巴克 Clive Barker / 伯纳德·罗斯 Bernard Rose
◎主  演 叶海亚·阿卜杜勒-迈丁 Yahya Abdul-Mateen II
     泰柔娜·派丽丝 Teyonah Parris
     内森·斯图尔特-贾瑞特 Nathan Stewart-Jarrett
     科尔曼·多明戈 Colman Domingo
     凯尔·卡明斯基 Kyle Kaminsky
     瓦妮莎·威廉姆斯 Vanessa Williams
     布莱恩·金 Brian King
     米里亚姆·莫斯 Miriam Moss
     瑞贝卡·斯宾塞 Rebecca Spence
     卡尔·克莱蒙斯-霍普金斯 Carl Clemons-Hopkins
     马力克·怀特 Malic White
     托尼·托德 Tony Todd
     纳迪娅·西姆斯 Nadia Simms
     Cassie Kramer Cassie Kramer

◎标  签 恐怖 | 惊悚 | 美国 | 2021 | 悬疑 | 灵异 | 翻拍 | 电影

◎简  介

  影片改编自恐怖小说大师克里夫·巴克的短篇作品,聚焦“糖果人,传说你对镜子说5次他的名字,他就会在倒影中出现,把你杀死”引发的故事。
[quote]Video
ID             : 1
ID in the original source medium   : 4113 (0x1011)
Format           : HEVC
Format/Info          : High Efficiency Video Coding
Format profile         : Main @High
HDR format           : SMPTE ST 2086, HDR10 compatible
Codec ID           : V_MPEGH/ISO/HEVC
Duration           : 1 h 31 min
Bit rate           : 52.4 Mb/s
Width            : 3 840 pixels
Height           : 2 160 pixels
Display aspect ratio       : 16:9
Frame rate mode        : Constant
Frame rate           : 23.976 (24000/1001/189150) FPS
Color space          : YUV
Chroma subsampling       : 4:2:0 (Type 2)
Bit depth          : 10 bits
Bits/(Pixel*Frame)       : 0.264
Stream size          : 33.3 GiB (83%)
Language           : English
Default            : No
Forced           : No
Color range          : Limited
Color primaries        : BT.2020
Transfer characteristics     : PQ
Matrix coefficients        : BT.2020 non-constant
Mastering display color primaries  : Display P3
Mastering display luminance    : min: 0.0050 cd/m2, max: 1000 cd/m2
Maximum Content Light Level    : 1000 cd/m2
Maximum Frame-Average Light Level  : 128 cd/m2
Original source medium       : Blu-ray

Audio #1
ID             : 2
ID in the original source medium   : 4352 (0x1100)
Format           : MLP FBA 16-ch
Format/Info          : Meridian Lossless Packing FBA with 16-channel presentation
Commercial name        : Dolby TrueHD with Dolby Atmos
Codec ID           : A_TRUEHD
Duration           : 1 h 31 min
Bit rate mode          : Variable
Bit rate           : 4 349 kb/s
Maximum bit rate         : 8 181 kb/s
Channel(s)           : 8 channels
Channel layout         : L R C LFE Ls Rs Lb Rb
Sampling rate          : 48.0 kHz
Frame rate           : 1 200.000 FPS (40 SPF)
Bit depth          : 24 bits
Compression mode         : Lossless
Stream size          : 2.77 GiB (7%)
Title            : TrueHD 7.1 Atmos
Language           : English
Default            : Yes
Forced           : No
Original source medium       : Blu-ray
Number of dynamic objects      : 11
Bed channel count        : 1 channel
Bed channel configuration      : LFE

Audio #2
ID             : 3
Format           : DTS XLL
Format/Info          : Digital Theater Systems
Commercial name        : DTS-HD Master Audio
Codec ID           : A_DTS
Duration           : 1 h 31 min
Bit rate mode          : Variable
Bit rate           : 4 218 kb/s
Channel(s)           : 8 channels
Channel layout         : C L R LFE Lb Rb Lss Rss
Sampling rate          : 48.0 kHz
Frame rate           : 93.750 FPS (512 SPF)
Bit depth          : 24 bits
Compression mode         : Lossless
Stream size          : 2.68 GiB (7%)
Title            : DTS-HD MA 7.1
Language           : English
Default            : No
Forced           : No

Audio #3
ID             : 4
ID in the original source medium   : 4352 (0x1100)
Format           : AC-3
Format/Info          : Audio Coding 3
Commercial name        : Dolby Digital
Codec ID           : A_AC3
Duration           : 1 h 31 min
Bit rate mode          : Constant
Bit rate           : 448 kb/s
Channel(s)           : 6 channels
Channel layout         : L R C LFE Ls Rs
Sampling rate          : 48.0 kHz
Frame rate           : 31.250 FPS (1536 SPF)
Compression mode         : Lossy
Stream size          : 292 MiB (1%)
Title            : DD 5.1
Language           : English
Service kind         : Complete Main
Default            : No
Forced           : No
Original source medium       : Blu-ray

Audio #4
ID             : 5
ID in the original source medium   : 4353 (0x1101)
Format           : AC-3
Format/Info          : Audio Coding 3
Commercial name        : Dolby Digital
Codec ID           : A_AC3
Duration           : 1 h 31 min
Bit rate mode          : Constant
Bit rate           : 640 kb/s
Channel(s)           : 6 channels
Channel layout         : L R C LFE Ls Rs
Sampling rate          : 48.0 kHz
Frame rate           : 31.250 FPS (1536 SPF)
Compression mode         : Lossy
Stream size          : 417 MiB (1%)
Title            : DD 5.1
Language           : Spanish
Service kind         : Complete Main
Default            : No
Forced           : No
Original source medium       : Blu-ray

Audio #5
ID             : 6
ID in the original source medium   : 4354 (0x1102)
Format           : AC-3
Format/Info          : Audio Coding 3
Commercial name        : Dolby Digital
Codec ID           : A_AC3
Duration           : 1 h 31 min
Bit rate mode          : Constant
Bit rate           : 640 kb/s
Channel(s)           : 6 channels
Channel layout         : L R C LFE Ls Rs
Sampling rate          : 48.0 kHz
Frame rate           : 31.250 FPS (1536 SPF)
Compression mode         : Lossy
Stream size          : 417 MiB (1%)
Title            : DD 5.1
Language           : French
Service kind         : Complete Main
Default            : No
Forced           : No
Original source medium       : Blu-ray

Text #1
ID             : 7
Format           : UTF-8
Codec ID           : S_TEXT/UTF8
Codec ID/Info          : UTF-8 Plain Text
Duration           : 1 h 25 min
Bit rate           : 47 b/s
Count of elements        : 1002
Stream size          : 30.2 KiB (0%)
Language           : English
Default            : Yes
Forced           : No

Text #2
ID             : 8
Format           : UTF-8
Codec ID           : S_TEXT/UTF8
Codec ID/Info          : UTF-8 Plain Text
Duration           : 1 h 26 min
Bit rate           : 57 b/s
Count of elements        : 1248
Stream size          : 36.2 KiB (0%)
Language           : English
Default            : No
Forced           : No

Text #3
ID             : 9
ID in the original source medium   : 4768 (0x12A0)
Format           : PGS
Muxing mode          : zlib
Codec ID           : S_HDMV/PGS
Codec ID/Info          : Picture based subtitle format used on BDs/HD-DVDs
Duration           : 1 h 26 min
Bit rate           : 40.6 kb/s
Count of elements        : 2512
Stream size          : 25.0 MiB (0%)
Language           : English
Default            : No
Forced           : No
Original source medium       : Blu-ray

Text #4
ID             : 10
ID in the original source medium   : 4769 (0x12A1)
Format           : PGS
Muxing mode          : zlib
Codec ID           : S_HDMV/PGS
Codec ID/Info          : Picture based subtitle format used on BDs/HD-DVDs
Duration           : 1 h 30 min
Bit rate           : 31.5 kb/s
Count of elements        : 2082
Stream size          : 20.5 MiB (0%)
Language           : Spanish
Default            : No
Forced           : No
Original source medium       : Blu-ray

Text #5
ID             : 11
ID in the original source medium   : 4770 (0x12A2)
Format           : PGS
Muxing mode          : zlib
Codec ID           : S_HDMV/PGS
Codec ID/Info          : Picture based subtitle format used on BDs/HD-DVDs
Duration           : 1 h 29 min
Bit rate           : 31.5 kb/s
Count of elements        : 1907
Stream size          : 20.2 MiB (0%)
Language           : French
Default            : No
Forced           : No
Original source medium       : Blu-ray

Text #6
ID             : 12
ID in the original source medium   : 4771 (0x12A3)
Format           : PGS
Muxing mode          : zlib
Codec ID           : S_HDMV/PGS
Codec ID/Info          : Picture based subtitle format used on BDs/HD-DVDs
Duration           : 28 min 42 s
Bit rate           : 250 b/s
Count of elements        : 4
Stream size          : 52.6 KiB (0%)
Language           : Spanish
Default            : No
Forced           : No
Original source medium       : Blu-ray

Text #7
ID             : 13
ID in the original source medium   : 4772 (0x12A4)
Format           : PGS
Muxing mode          : zlib
Codec ID           : S_HDMV/PGS
Codec ID/Info          : Picture based subtitle format used on BDs/HD-DVDs
Duration           : 1 h 28 min
Bit rate           : 519 b/s
Count of elements        : 26
Stream size          : 338 KiB (0%)
Language           : French
Default            : No
Forced           : No
Original source medium       : Blu-ray

Menu
00:00:00.000         : en:Chapter 01
00:06:34.060         : en:Chapter 02
00:12:45.514         : en:Chapter 03
00:18:00.621         : en:Chapter 04
00:21:03.637         : en:Chapter 05
00:24:59.581         : en:Chapter 06
00:30:13.144         : en:Chapter 07
00:34:37.116         : en:Chapter 08
00:38:23.509         : en:Chapter 09
00:41:22.771         : en:Chapter 10
00:46:14.480         : en:Chapter 11
00:49:43.647         : en:Chapter 12
00:53:53.313         : en:Chapter 13
00:57:36.828         : en:Chapter 14
01:00:56.027         : en:Chapter 15
01:03:32.433         : en:Chapter 16
01:08:55.756         : en:Chapter 17
01:13:32.783         : en:Chapter 18
01:20:20.398         : en:Chapter 19
01:26:08.329         : en:Chapter 20[/code]





                                                                  
                                                                                                                                                                                                                                                                                 

本帖子中包含更多资源

您需要 登录 才可以下载或查看,没有帐号?立即注册

x
回复

使用道具 举报

您需要登录后才可以回帖 登录 | 立即注册

本版积分规则

4k蓝光原盘高清论坛

GMT+8, 2021-11-27 17:13 , Processed in 0.074211 second(s), 28 queries .

Powered by Discuz! X3.4

Copyright © 2001-2021, Tencent Cloud.

快速回复 返回顶部 返回列表