请选择 进入手机版 | 继续访问电脑版

4k蓝光原盘高清论坛

 找回密码
 立即注册
搜索
热搜: 活动 交友 discuz
查看: 4|回复: 0

幽灵之国的囚徒/鬼域之囚 Prisoners.of.the.Ghostland.2021.2160p.BluRay.REMUX.HEVC. ...

[复制链接]

887

主题

887

帖子

2661

积分

超级版主

Rank: 8Rank: 8

积分
2661
发表于 2021-11-17 09:07:33 | 显示全部楼层 |阅读模式
幽灵之国的囚徒/鬼域之囚 Prisoners.of.the.Ghostland.2021.2160p.BluRay.REMUX.HEVC.DTS-HD.MA.5                                                                                                                                                                              -->
[quote]帖子完整标题:幽灵之国的囚徒/鬼域之囚 Prisoners.of.the.Ghostland.2021.2160p.BluRay.REMUX.HEVC.DTS-HD.MA.5.1-FGT 36.54GB[/code]





◎译  名 幽灵之国的囚徒/鬼域之囚/鬼域的囚徒
◎片  名 Prisoners Of The Ghostland
◎年  代 2021
◎产  地 美国,日本
◎类  别 动作 / 惊悚 / 恐怖
◎语  言 英语,日语
◎上映日期 2021-01-31(圣丹斯电影节) / 2021-09-17(美国网络) / 2021-10-08(日本)
◎豆瓣评分 3.7/10 from 2501 users
◎ 
◎片  长 100分钟
◎导  演 园子温 Shion Sono
◎编  剧 Aaron Hendry Aaron Hendry / Reza Sixo Safai Reza Sixo Safai
◎主  演 尼古拉斯·凯奇 Nicolas Cage
     索菲亚·波多拉 Sofia Boutella
     尼克·卡萨维蒂 Nick Cassavetes
     比尔·莫斯利 Bill Moseley
     坂口拓 Tak Sakaguchi
     小川辉晃 Teruaki Ogawa
     马修·乔齐克 Matthew Chozick
     艾德·斯克林 Ed Skrein
     海 YOUNG DAIS
     栗原类 Louis Kurihara
     周传兮 Chuanxi Zhou
     萝拉 Rola
     特蕾莎·鲁伊斯 Teresa Ruiz
     中屋柚香 Nakaya Yuzuka
     渡边哲 Tetsu Watanabe
     藤丸千 Sen Fujimaru

◎标  签 园子温 | 尼古拉斯·凯奇 | 奇幻 | 日本 | 2021 | 动作 | 惊悚 | 恐怖

◎简  介

  故事讲述一名被绑架的女孩([波多拉饰])消失在了黑暗超自然宇宙中,臭名昭著的罪犯英雄(凯奇饰)被派去解救她。他们必须打破束缚他们的邪恶诅咒才能逃避统治鬼域的神秘幽灵。
[quote]Video
ID             : 1
ID in the original source medium   : 4113 (0x1011)
Format           : HEVC
Format/Info          : High Efficiency Video Coding
Format profile         : Main @High
HDR format           : SMPTE ST 2086, HDR10 compatible
Codec ID           : V_MPEGH/ISO/HEVC
Duration           : 1 h 42 min
Bit rate           : 46.6 Mb/s
Width            : 3 840 pixels
Height           : 2 160 pixels
Display aspect ratio       : 16:9
Frame rate mode        : Constant
Frame rate           : 23.976 (24000/1001/189150) FPS
Color space          : YUV
Chroma subsampling       : 4:2:0 (Type 2)
Bit depth          : 10 bits
Bits/(Pixel*Frame)       : 0.234
Stream size          : 33.4 GiB (91%)
Language           : English
Default            : No
Forced           : No
Color range          : Limited
Color primaries        : BT.2020
Transfer characteristics     : PQ
Matrix coefficients        : BT.2020 non-constant
Mastering display color primaries  : R: x=0.680000 y=0.320000, G: x=0.265000 y=0.690000, B: x=0.150000 y=0.600000, White point: x=0.312680 y=0.329000
Mastering display luminance    : min: 0.0001 cd/m2, max: 1000 cd/m2
Maximum Content Light Level    : 1017 cd/m2
Maximum Frame-Average Light Level  : 398 cd/m2
Original source medium       : Blu-ray

Audio #1
ID             : 2
ID in the original source medium   : 4352 (0x1100)
Format           : DTS XLL
Format/Info          : Digital Theater Systems
Commercial name        : DTS-HD Master Audio
Codec ID           : A_DTS
Duration           : 1 h 42 min
Bit rate mode          : Variable
Bit rate           : 3 747 kb/s
Channel(s)           : 6 channels
Channel layout         : C L R Ls Rs LFE
Sampling rate          : 48.0 kHz
Frame rate           : 93.750 FPS (512 SPF)
Bit depth          : 24 bits
Compression mode         : Lossless
Stream size          : 2.68 GiB (7%)
Title            : DTS-HD MA 5.1
Language           : English
Default            : Yes
Forced           : No
Original source medium       : Blu-ray

Audio #2
ID             : 3
Format           : AC-3
Format/Info          : Audio Coding 3
Commercial name        : Dolby Digital
Codec ID           : A_AC3
Duration           : 1 h 42 min
Bit rate mode          : Constant
Bit rate           : 640 kb/s
Channel(s)           : 6 channels
Channel layout         : L R C LFE Ls Rs
Sampling rate          : 48.0 kHz
Frame rate           : 31.250 FPS (1536 SPF)
Compression mode         : Lossy
Stream size          : 469 MiB (1%)
Title            : DD 5.1
Language           : English
Service kind         : Complete Main
Default            : No
Forced           : No

Text #1
ID             : 4
Format           : UTF-8
Codec ID           : S_TEXT/UTF8
Codec ID/Info          : UTF-8 Plain Text
Duration           : 1 h 35 min
Bit rate           : 23 b/s
Count of elements        : 718
Stream size          : 16.3 KiB (0%)
Language           : English
Default            : Yes
Forced           : No

Text #2
ID             : 5
Format           : UTF-8
Codec ID           : S_TEXT/UTF8
Codec ID/Info          : UTF-8 Plain Text
Duration           : 1 h 42 min
Bit rate           : 30 b/s
Count of elements        : 1061
Stream size          : 23.0 KiB (0%)
Title            : SDH
Language           : English
Default            : No
Forced           : No

Text #3
ID             : 6
ID in the original source medium   : 4768 (0x12A0)
Format           : PGS
Muxing mode          : zlib
Codec ID           : S_HDMV/PGS
Codec ID/Info          : Picture based subtitle format used on BDs/HD-DVDs
Duration           : 1 h 42 min
Bit rate           : 21.5 kb/s
Count of elements        : 2124
Stream size          : 15.7 MiB (0%)
Language           : English
Default            : No
Forced           : No
Original source medium       : Blu-ray

Text #4
ID             : 7
ID in the original source medium   : 4769 (0x12A1)
Format           : PGS
Muxing mode          : zlib
Codec ID           : S_HDMV/PGS
Codec ID/Info          : Picture based subtitle format used on BDs/HD-DVDs
Duration           : 1 h 34 min
Bit rate           : 18.6 kb/s
Count of elements        : 1680
Stream size          : 12.6 MiB (0%)
Language           : Spanish
Default            : No
Forced           : No
Original source medium       : Blu-ray

Menu
00:00:00.000         : en:Chapter 01
00:11:54.630         : en:Chapter 02
00:31:55.872         : en:Chapter 03
00:42:11.737         : en:Chapter 04
00:52:23.473         : en:Chapter 05
01:00:30.001         : en:Chapter 06
01:15:01.580         : en:Chapter 07
01:37:12.284         : en:Chapter 08[/code]





                                                                  
                                                                                                                                                                                                                                                                                 

本帖子中包含更多资源

您需要 登录 才可以下载或查看,没有帐号?立即注册

x
回复

使用道具 举报

您需要登录后才可以回帖 登录 | 立即注册

本版积分规则

4k蓝光原盘高清论坛

GMT+8, 2021-11-27 16:44 , Processed in 0.082556 second(s), 28 queries .

Powered by Discuz! X3.4

Copyright © 2001-2021, Tencent Cloud.

快速回复 返回顶部 返回列表