请选择 进入手机版 | 继续访问电脑版

4k蓝光原盘高清论坛

 找回密码
 立即注册
搜索
热搜: 活动 交友 discuz
查看: 49|回复: 0

黑寡妇 Black.Widow.2021.IMAX.2160p.DSNP.WEB-DL.x265.10bit.HDR.DTS-HD.MA.TrueHD.7 ..

[复制链接]

988

主题

988

帖子

2964

积分

超级版主

Rank: 8Rank: 8

积分
2964
发表于 2021-11-13 20:51:44 | 显示全部楼层 |阅读模式
黑寡妇 Black.Widow.2021.IMAX.2160p.DSNP.WEB-DL.x265.10bit.HDR.DTS-HD.MA.TrueHD.7.1.                                                                                                                                                                              -->
[quote]帖子完整标题:黑寡妇 Black.Widow.2021.IMAX.2160p.DSNP.WEB-DL.x265.10bit.HDR.DTS-HD.MA.TrueHD.7.1.Atmos-SWTYBLZ 24.80GB[/code]





◎译  名 黑寡妇/The Black Widow
◎片  名 Black Widow
◎年  代 2021
◎产  地 美国
◎类  别 动作 / 科幻 / 冒险
◎语  言 英语,俄语,挪威语,匈牙利语,马其顿语,芬兰语
◎上映日期 2021(中国大陆) / 2021-07-07(中国香港) / 2021-07-09(美国/美国网络)
◎豆瓣评分 6.3/10 from 132357 users
◎ 
◎片  长 133分钟
◎导  演 凯特·绍特兰 Cate Shortland
◎编  剧 雅克·舍费尔 Jac Schaeffer / 内德·本森 Ned Benson / 埃里克·皮尔森 Eric Pearson / 斯坦·李 Stan Lee / 唐·赫克 Don Heck / 唐·里科 Don Rico
◎主  演 斯嘉丽·约翰逊 Scarlett Johansson
     弗洛伦丝·皮尤 Florence Pugh
     蕾切尔·薇兹 Rachel Weisz
     大卫·哈伯 David Harbour
     艾尔·安德森 Ever Anderson
     维奥莱特·麦格劳 Violet McGraw
     欧嘉·柯瑞兰寇 Olga Kurylenko
     O·T·法格本 O.T. Fagbenle
     威廉·赫特 William Hurt
     雷·温斯顿 Ray Winstone
     赖恩·基拉·阿姆斯特朗 Ryan Kiera Armstrong
     米歇尔·李 Michelle Lee
     拉娜·布隆代尔 Nanna Blondell
     Claudia Heinz Claudia Heinz
     露西·詹·穆雷 Lucy Jayne Murray
     乔治亚·柯蒂斯 Georgia Curtis
     约恩·巴特勒 Ione Butler
     库尔特·岳 Kurt Yue
     奥利维尔·里希特斯 Olivier Richters
     安得烈·拜伦 Andrew Byron
     卡利·内勒 Cali Nelle
     罗伯特·普拉尔戈 Robert Pralgo
     贾辛特·布兰肯希普 Jacinte Blankenship
     乔希·亨利 Josh Henry
     阿里娅·布鲁克斯 Aria Brooks
     泰·赫尔利 Ty Hurley
     马里安·洛伦西克 Marian Lorencik
     茱莉亚·路易斯-德瑞弗斯 Julia Louis-Dreyfus
     亚当·普里克特 Adam Prickett
     史蒂芬·萨姆森 Stephen Samson
     乔基姆·斯卡利 Joakim Skarli
     利亚尼·塞缪尔 Liani Samuel
     西蒙娜·齐夫科夫斯卡 Simona Zivkovska
     刘易斯·扬 Lewis Young

◎标  签 漫威 | 斯嘉丽·约翰逊 | 黑寡妇 | 超级英雄 | 美国 | 科幻 | 动作 | 2021

◎简  介

  一部充满动作戏的间谍惊悚片。娜塔莎·罗曼诺夫/黑寡妇遭遇与她的过去相关的一场危险阴谋,将直面自己那些更为黑暗的经历。一股不惜一切要击倒她的力量袭来,娜塔莎必须面对自己在成为复仇者的很久之前那作为间谍的过往,和曾远离的破碎关系。

◎获奖情况

  第7届豆瓣电影年度榜单 ?(2020)
  最值得期待的外语电影
  
  第6届豆瓣电影年度榜单 ?(2019)
  最值得期待的外语电影
[quote]Video
ID             : 1
Format           : HEVC
Format/Info          : High Efficiency Video Coding
Format profile         : Main @High
HDR format           : SMPTE ST 2086, HDR10 compatible
Codec ID           : V_MPEGH/ISO/HEVC
Duration           : 2 h 13 min
Bit rate           : 16.4 Mb/s
Width            : 3 840 pixels
Height           : 2 160 pixels
Display aspect ratio       : 16:9
Frame rate mode        : Constant
Frame rate           : 23.976 (24000/1001/189150) FPS
Color space          : YUV
Chroma subsampling       : 4:2:0
Bit depth          : 10 bits
Bits/(Pixel*Frame)       : 0.082
Stream size          : 15.3 GiB (62%)
Default            : Yes
Forced           : No
Color range          : Limited
Color primaries        : BT.2020
Transfer characteristics     : PQ
Matrix coefficients        : BT.2020 non-constant
Mastering display color primaries  : Display P3
Mastering display luminance    : min: 0.0000 cd/m2, max: 1000 cd/m2

Audio #1
ID             : 2
ID in the original source medium   : 4352 (0x1100)
Format           : MLP FBA 16-ch
Format/Info          : Meridian Lossless Packing FBA with 16-channel presentation
Commercial name        : Dolby TrueHD with Dolby Atmos
Codec ID           : A_TRUEHD
Duration           : 2 h 13 min
Bit rate mode          : Variable
Bit rate           : 4 284 kb/s
Maximum bit rate         : 7 737 kb/s
Channel(s)           : 8 channels
Channel layout         : L R C LFE Ls Rs Lb Rb
Sampling rate          : 48.0 kHz
Frame rate           : 1 200.000 FPS (40 SPF)
Bit depth          : 24 bits
Compression mode         : Lossless
Stream size          : 4.00 GiB (16%)
Title            : TrueHD 7.1 Atmos
Language           : English
Default            : Yes
Forced           : No
Original source medium       : Blu-ray
Number of dynamic objects      : 13
Bed channel count        : 1 channel
Bed channel configuration      : LFE

Audio #2
ID             : 3
Format           : DTS XLL
Format/Info          : Digital Theater Systems
Commercial name        : DTS-HD Master Audio
Codec ID           : A_DTS
Duration           : 2 h 13 min
Bit rate mode          : Variable
Bit rate           : 4 412 kb/s
Channel(s)           : 8 channels
Channel layout         : C L R LFE Lb Rb Lss Rss
Sampling rate          : 48.0 kHz
Frame rate           : 93.750 FPS (512 SPF)
Bit depth          : 24 bits
Compression mode         : Lossless
Stream size          : 4.12 GiB (17%)
Title            : DTS-HD MA 7.1
Language           : English
Default            : No
Forced           : No

Audio #3
ID             : 4
Format           : E-AC-3 JOC
Format/Info          : Enhanced AC-3 with Joint Object Coding
Commercial name        : Dolby Digital Plus with Dolby Atmos
Codec ID           : A_EAC3
Duration           : 2 h 13 min
Bit rate mode          : Constant
Bit rate           : 768 kb/s
Channel(s)           : 6 channels
Channel layout         : L R C LFE Ls Rs
Sampling rate          : 48.0 kHz
Frame rate           : 31.250 FPS (1536 SPF)
Compression mode         : Lossy
Stream size          : 735 MiB (3%)
Title            : English
Language           : English
Service kind         : Complete Main
Default            : No
Forced           : No
Complexity index         : 16
Number of dynamic objects      : 15
Bed channel count        : 1 channel
Bed channel configuration      : LFE

Audio #4
ID             : 5
ID in the original source medium   : 4352 (0x1100)
Format           : AC-3
Format/Info          : Audio Coding 3
Commercial name        : Dolby Digital
Codec ID           : A_AC3
Duration           : 2 h 13 min
Bit rate mode          : Constant
Bit rate           : 640 kb/s
Channel(s)           : 6 channels
Channel layout         : L R C LFE Ls Rs
Sampling rate          : 48.0 kHz
Frame rate           : 31.250 FPS (1536 SPF)
Compression mode         : Lossy
Stream size          : 612 MiB (2%)
Title            : DD 5.1
Language           : English
Service kind         : Complete Main
Default            : No
Forced           : No
Original source medium       : Blu-ray

Text #1
ID             : 6
Format           : UTF-8
Codec ID           : S_TEXT/UTF8
Codec ID/Info          : UTF-8 Plain Text
Duration           : 2 h 12 min
Bit rate           : 39 b/s
Count of elements        : 1306
Stream size          : 38.8 KiB (0%)
Title            : English
Language           : English
Default            : Yes
Forced           : No

Text #2
ID             : 7
Format           : UTF-8
Codec ID           : S_TEXT/UTF8
Codec ID/Info          : UTF-8 Plain Text
Duration           : 2 h 13 min
Bit rate           : 46 b/s
Count of elements        : 1630
Stream size          : 45.7 KiB (0%)
Title            : English [SDH]
Language           : English
Default            : No
Forced           : No

Text #3
ID             : 8
Format           : UTF-8
Codec ID           : S_TEXT/UTF8
Codec ID/Info          : UTF-8 Plain Text
Duration           : 2 h 12 min
Bit rate           : 33 b/s
Count of elements        : 1367
Stream size          : 32.4 KiB (0%)
Title            : Chinese Simplified
Language           : Chinese
Default            : No
Forced           : No

Text #4
ID             : 9
Format           : UTF-8
Codec ID           : S_TEXT/UTF8
Codec ID/Info          : UTF-8 Plain Text
Duration           : 2 h 12 min
Bit rate           : 30 b/s
Count of elements        : 1309
Stream size          : 30.1 KiB (0%)
Title            : Chinese Traditional
Language           : Chinese
Default            : No
Forced           : No

Text #5
ID             : 10
Format           : UTF-8
Codec ID           : S_TEXT/UTF8
Codec ID/Info          : UTF-8 Plain Text
Duration           : 2 h 12 min
Bit rate           : 33 b/s
Count of elements        : 923
Stream size          : 32.4 KiB (0%)
Title            : Danish
Language           : Danish
Default            : No
Forced           : No

Text #6
ID             : 11
Format           : UTF-8
Codec ID           : S_TEXT/UTF8
Codec ID/Info          : UTF-8 Plain Text
Duration           : 2 h 12 min
Bit rate           : 35 b/s
Count of elements        : 1114
Stream size          : 34.9 KiB (0%)
Title            : Dutch
Language           : Dutch
Default            : No
Forced           : No

Text #7
ID             : 12
Format           : UTF-8
Codec ID           : S_TEXT/UTF8
Codec ID/Info          : UTF-8 Plain Text
Duration           : 2 h 12 min
Bit rate           : 39 b/s
Count of elements        : 1300
Stream size          : 38.3 KiB (0%)
Title            : Finnish
Language           : Finnish
Default            : No
Forced           : No

Text #8
ID             : 13
Format           : UTF-8
Codec ID           : S_TEXT/UTF8
Codec ID/Info          : UTF-8 Plain Text
Duration           : 2 h 12 min
Bit rate           : 43 b/s
Count of elements        : 1319
Stream size          : 42.7 KiB (0%)
Title            : French Canadian
Language           : French
Default            : No
Forced           : No

Text #9
ID             : 14
Format           : UTF-8
Codec ID           : S_TEXT/UTF8
Codec ID/Info          : UTF-8 Plain Text
Duration           : 2 h 12 min
Bit rate           : 33 b/s
Count of elements        : 1256
Stream size          : 32.4 KiB (0%)
Title            : French
Language           : French
Default            : No
Forced           : No

Text #10
ID             : 15
Format           : UTF-8
Codec ID           : S_TEXT/UTF8
Codec ID/Info          : UTF-8 Plain Text
Duration           : 2 h 12 min
Bit rate           : 35 b/s
Count of elements        : 1204
Stream size          : 34.8 KiB (0%)
Title            : German
Language           : German
Default            : No
Forced           : No

Text #11
ID             : 16
Format           : UTF-8
Codec ID           : S_TEXT/UTF8
Codec ID/Info          : UTF-8 Plain Text
Duration           : 2 h 12 min
Bit rate           : 40 b/s
Count of elements        : 1278
Stream size          : 39.1 KiB (0%)
Title            : Italian
Language           : Italian
Default            : No
Forced           : No

Text #12
ID             : 17
Format           : UTF-8
Codec ID           : S_TEXT/UTF8
Codec ID/Info          : UTF-8 Plain Text
Duration           : 2 h 12 min
Bit rate           : 32 b/s
Count of elements        : 1257
Stream size          : 31.6 KiB (0%)
Title            : Japanese
Language           : Japanese
Default            : No
Forced           : No

Text #13
ID             : 18
Format           : UTF-8
Codec ID           : S_TEXT/UTF8
Codec ID/Info          : UTF-8 Plain Text
Duration           : 2 h 12 min
Bit rate           : 36 b/s
Count of elements        : 1297
Stream size          : 35.8 KiB (0%)
Title            : Korean
Language           : Korean
Default            : No
Forced           : No

Text #14
ID             : 19
Format           : UTF-8
Codec ID           : S_TEXT/UTF8
Codec ID/Info          : UTF-8 Plain Text
Duration           : 2 h 12 min
Bit rate           : 34 b/s
Count of elements        : 1299
Stream size          : 33.8 KiB (0%)
Title            : Norwegian
Language           : Norwegian
Default            : No
Forced           : No

Text #15
ID             : 20
Format           : UTF-8
Codec ID           : S_TEXT/UTF8
Codec ID/Info          : UTF-8 Plain Text
Duration           : 2 h 12 min
Bit rate           : 38 b/s
Count of elements        : 1273
Stream size          : 37.6 KiB (0%)
Title            : Portuguese
Language           : Portuguese
Default            : No
Forced           : No

Text #16
ID             : 21
Format           : UTF-8
Codec ID           : S_TEXT/UTF8
Codec ID/Info          : UTF-8 Plain Text
Duration           : 2 h 12 min
Bit rate           : 39 b/s
Count of elements        : 1297
Stream size          : 38.5 KiB (0%)
Title            : Brazilian Portuguese
Language           : Portuguese
Default            : No
Forced           : No

Text #17
ID             : 22
Format           : UTF-8
Codec ID           : S_TEXT/UTF8
Codec ID/Info          : UTF-8 Plain Text
Duration           : 2 h 12 min
Bit rate           : 36 b/s
Count of elements        : 1277
Stream size          : 35.0 KiB (0%)
Title            : European Spanish
Language           : Spanish
Default            : No
Forced           : No

Text #18
ID             : 23
Format           : UTF-8
Codec ID           : S_TEXT/UTF8
Codec ID/Info          : UTF-8 Plain Text
Duration           : 2 h 12 min
Bit rate           : 40 b/s
Count of elements        : 1301
Stream size          : 39.4 KiB (0%)
Title            : Spanish
Language           : Spanish
Default            : No
Forced           : No

Text #19
ID             : 24
Format           : UTF-8
Codec ID           : S_TEXT/UTF8
Codec ID/Info          : UTF-8 Plain Text
Duration           : 2 h 12 min
Bit rate           : 35 b/s
Count of elements        : 1080
Stream size          : 34.8 KiB (0%)
Title            : Swedish
Language           : Swedish
Default            : No
Forced           : No

Text #20
ID             : 25
Format           : UTF-8
Codec ID           : S_TEXT/UTF8
Codec ID/Info          : UTF-8 Plain Text
Duration           : 2 h 12 min
Bit rate           : 28 b/s
Count of elements        : 1287
Stream size          : 27.6 KiB (0%)
Title            : Mandarin (Guoyu)
Language           : Chinese
Default            : No
Forced           : No

Menu
00:00:00.000         : en:Chapter 01
00:04:55.169         : en:Chapter 02
00:13:10.080         : en:Chapter 03
00:16:24.566         : en:Chapter 04
00:18:41.870         : en:Chapter 05
00:21:41.633         : en:Chapter 06
00:25:40.747         : en:Chapter 07
00:30:06.346         : en:Chapter 08
00:39:05.301         : en:Chapter 09
00:44:46.058         : en:Chapter 10
00:53:25.994         : en:Chapter 11
01:01:38.152         : en:Chapter 12
01:07:46.270         : en:Chapter 13
01:11:40.629         : en:Chapter 14
01:17:48.747         : en:Chapter 15
01:27:19.192         : en:Chapter 16
01:33:33.441         : en:Chapter 17
01:37:37.476         : en:Chapter 18
01:41:18.655         : en:Chapter 19
01:45:37.539         : en:Chapter 20
01:51:41.653         : en:Chapter 21
01:57:09.105         : en:Chapter 22
02:01:59.562         : en:Chapter 23
02:04:25.458         : en:Chapter 24[/code]





                                                                  
                                                                                                                                                                                                                                                                                 

本帖子中包含更多资源

您需要 登录 才可以下载或查看,没有帐号?立即注册

x
回复

使用道具 举报

您需要登录后才可以回帖 登录 | 立即注册

本版积分规则

4k蓝光原盘高清论坛

GMT+8, 2022-1-20 15:35 , Processed in 0.083954 second(s), 27 queries .

Powered by Discuz! X3.4

Copyright © 2001-2021, Tencent Cloud.

快速回复 返回顶部 返回列表