请选择 进入手机版 | 继续访问电脑版

4k蓝光原盘高清论坛

 找回密码
 立即注册
搜索
热搜: 活动 交友 discuz
查看: 66|回复: 0

尚气与十环传奇/上气 Shang-Chi.and.the.Legend.of.the.Ten.Rings.2021.IMAX.2160p.DS ...

[复制链接]

988

主题

988

帖子

2964

积分

超级版主

Rank: 8Rank: 8

积分
2964
发表于 2021-11-13 08:46:14 | 显示全部楼层 |阅读模式
尚气与十环传奇/上气 Shang-Chi.and.the.Legend.of.the.Ten.Rings.2021.IMAX.2160p.DSNP.WEB-DL                                                                                                                                                                              -->
[quote]帖子完整标题:尚气与十环传奇/上气 Shang-Chi.and.the.Legend.of.the.Ten.Rings.2021.IMAX.2160p.DSNP.WEB-DL.x265.10bit.HDR.DDP5.1.Atmos-MZABI 16.03GB[/code]





◎译  名 尚气与十环传奇/上气/上气:十戒传奇/上气与十戒传奇/上气与十诫传说/商奇/尚气/尚气与十戒传奇/尚气与十指环传奇/尚气与十环帮传奇(港)
◎片  名 Shang-Chi and the Legend of the Ten Rings
◎年  代 2021
◎产  地 美国,澳大利亚
◎类  别 动作 / 奇幻 / 冒险
◎语  言 英语,汉语普通话
◎上映日期 2021-09-03(美国) / 2021-11-12(美国网络)
◎豆瓣评分 6.6/10 from 49470 users
◎ 
◎片  长 132分钟
◎导  演 德斯汀·克里顿 Destin Cretton
◎编  剧 戴夫·卡拉汉姆 Dave Callaham / 史蒂夫·恩格尔哈特 Steve Englehart / 吉姆·斯特林 Jim Starlin / 德斯汀·克里顿 Destin Cretton
◎主  演 刘思慕 Simu Liu
     梁朝伟 Tony Leung Chiu Wai
     奥卡菲娜 Awkwafina
     张梦儿 Meng'er Zhang
     陈法拉 Fala Chen
     杨紫琼 Michelle Yeoh
     元华 Wah Yuen
     本尼迪克特·王 Benedict Wong
     弗罗里安·穆特鲁 Florian Munteanu
     安迪·黎 Andy Le
     本·金斯利 Ben Kingsley
     斯蒂芬妮·许 Stephanie Hsu
     库纳尔·杜德赫克 Kunal Dudheker
     周采芹 Tsai Chin
     乔迪·朗 Jodi Long
     达拉斯·刘 Dallas Liu
     钱信伊 Ronny Chieng
     费尔南多·钱 Fernando Chien
     扎克·切利 Zach Cherry
     刘家勇 Kar-Yung Lau
     赫小哈 Harmonie He
     Lynette Curran Lynette Curran
     迪·布拉雷·贝克尔 Dee Bradley Baker
     布丽·拉尔森 Brie Larson
     马克·鲁弗洛 Mark Ruffalo
     蒂姆·罗斯 Tim Roth
     亚历山大·陈 Alexandre Chen

◎标  签 漫威 | 超级英雄 | 美国 | 漫威电影宇宙 | 动作 | 2021 | 奇幻 | 科幻

◎简  介

  故事发生在《复仇者联盟4:终局之战》事件之后,尚气(刘思慕 饰)卷入秘密的十环帮组织,被迫面对自己隐秘的过去经历。
[quote]Video
ID             : 1
Format           : HEVC
Format/Info          : High Efficiency Video Coding
Format profile         : Main @High
HDR format           : SMPTE ST 2086, HDR10 compatible
Codec ID           : V_MPEGH/ISO/HEVC
Duration           : 2 h 12 min
Bit rate           : 16.6 Mb/s
Width            : 3 840 pixels
Height           : 2 160 pixels
Display aspect ratio       : 16:9
Frame rate mode        : Constant
Frame rate           : 23.976 (24000/1001/189150) FPS
Color space          : YUV
Chroma subsampling       : 4:2:0
Bit depth          : 10 bits
Bits/(Pixel*Frame)       : 0.083
Stream size          : 15.3 GiB (96%)
Default            : Yes
Forced           : No
Color range          : Limited
Color primaries        : BT.2020
Transfer characteristics     : PQ
Matrix coefficients        : BT.2020 non-constant
Mastering display color primaries  : Display P3
Mastering display luminance    : min: 0.0000 cd/m2, max: 1000 cd/m2

Audio
ID             : 2
Format           : E-AC-3 JOC
Format/Info          : Enhanced AC-3 with Joint Object Coding
Commercial name        : Dolby Digital Plus with Dolby Atmos
Codec ID           : A_EAC3
Duration           : 2 h 12 min
Bit rate mode          : Constant
Bit rate           : 768 kb/s
Channel(s)           : 6 channels
Channel layout         : L R C LFE Ls Rs
Sampling rate          : 48.0 kHz
Frame rate           : 31.250 FPS (1536 SPF)
Compression mode         : Lossy
Stream size          : 727 MiB (4%)
Title            : English
Language           : English
Service kind         : Complete Main
Default            : No
Forced           : No
Complexity index         : 16
Number of dynamic objects      : 15
Bed channel count        : 1 channel
Bed channel configuration      : LFE

Text #1
ID             : 3
Format           : UTF-8
Codec ID           : S_TEXT/UTF8
Codec ID/Info          : UTF-8 Plain Text
Duration           : 2 h 11 min
Bit rate           : 28 b/s
Count of elements        : 1153
Stream size          : 27.4 KiB (0%)
Title            : Chinese Traditional
Language           : Chinese
Default            : No
Forced           : No

Text #2
ID             : 4
Format           : UTF-8
Codec ID           : S_TEXT/UTF8
Codec ID/Info          : UTF-8 Plain Text
Duration           : 2 h 11 min
Bit rate           : 35 b/s
Count of elements        : 1135
Stream size          : 33.8 KiB (0%)
Title            : Chinese Simplified
Language           : Chinese
Default            : No
Forced           : No

Text #3
ID             : 5
Format           : UTF-8
Codec ID           : S_TEXT/UTF8
Codec ID/Info          : UTF-8 Plain Text
Duration           : 2 h 11 min
Bit rate           : 31 b/s
Count of elements        : 798
Stream size          : 30.8 KiB (0%)
Title            : Danish
Language           : Danish
Default            : No
Forced           : No

Text #4
ID             : 6
Format           : UTF-8
Codec ID           : S_TEXT/UTF8
Codec ID/Info          : UTF-8 Plain Text
Duration           : 2 h 11 min
Bit rate           : 33 b/s
Count of elements        : 941
Stream size          : 32.3 KiB (0%)
Title            : Dutch
Language           : Dutch
Default            : No
Forced           : No

Text #5
ID             : 7
Format           : UTF-8
Codec ID           : S_TEXT/UTF8
Codec ID/Info          : UTF-8 Plain Text
Duration           : 1 h 55 min
Bit rate           : 5 b/s
Count of elements        : 188
Stream size          : 4.98 KiB (0%)
Title            : English [Forced]
Language           : English
Default            : No
Forced           : Yes

Text #6
ID             : 8
Format           : UTF-8
Codec ID           : S_TEXT/UTF8
Codec ID/Info          : UTF-8 Plain Text
Duration           : 2 h 10 min
Bit rate           : 38 b/s
Count of elements        : 1313
Stream size          : 36.6 KiB (0%)
Title            : English
Language           : English
Default            : No
Forced           : No

Text #7
ID             : 9
Format           : UTF-8
Codec ID           : S_TEXT/UTF8
Codec ID/Info          : UTF-8 Plain Text
Duration           : 2 h 11 min
Bit rate           : 49 b/s
Count of elements        : 1821
Stream size          : 47.5 KiB (0%)
Title            : English [SDH]
Language           : English
Default            : No
Forced           : No

Text #8
ID             : 10
Format           : UTF-8
Codec ID           : S_TEXT/UTF8
Codec ID/Info          : UTF-8 Plain Text
Duration           : 2 h 11 min
Bit rate           : 36 b/s
Count of elements        : 1126
Stream size          : 34.9 KiB (0%)
Title            : Finnish
Language           : Finnish
Default            : No
Forced           : No

Text #9
ID             : 11
Format           : UTF-8
Codec ID           : S_TEXT/UTF8
Codec ID/Info          : UTF-8 Plain Text
Duration           : 2 h 11 min
Bit rate           : 37 b/s
Count of elements        : 1142
Stream size          : 36.5 KiB (0%)
Title            : French Canadian
Language           : French
Default            : No
Forced           : No

Text #10
ID             : 12
Format           : UTF-8
Codec ID           : S_TEXT/UTF8
Codec ID/Info          : UTF-8 Plain Text
Duration           : 2 h 11 min
Bit rate           : 31 b/s
Count of elements        : 1082
Stream size          : 30.4 KiB (0%)
Title            : French
Language           : French
Default            : No
Forced           : No

Text #11
ID             : 13
Format           : UTF-8
Codec ID           : S_TEXT/UTF8
Codec ID/Info          : UTF-8 Plain Text
Duration           : 2 h 11 min
Bit rate           : 33 b/s
Count of elements        : 1080
Stream size          : 32.3 KiB (0%)
Title            : German
Language           : German
Default            : No
Forced           : No

Text #12
ID             : 14
Format           : UTF-8
Codec ID           : S_TEXT/UTF8
Codec ID/Info          : UTF-8 Plain Text
Duration           : 2 h 11 min
Bit rate           : 36 b/s
Count of elements        : 1124
Stream size          : 35.6 KiB (0%)
Title            : Icelandic
Language           : Icelandic
Default            : No
Forced           : No

Text #13
ID             : 15
Format           : UTF-8
Codec ID           : S_TEXT/UTF8
Codec ID/Info          : UTF-8 Plain Text
Duration           : 2 h 11 min
Bit rate           : 37 b/s
Count of elements        : 1128
Stream size          : 35.8 KiB (0%)
Title            : Italian
Language           : Italian
Default            : No
Forced           : No

Text #14
ID             : 16
Format           : UTF-8
Codec ID           : S_TEXT/UTF8
Codec ID/Info          : UTF-8 Plain Text
Duration           : 2 h 11 min
Bit rate           : 30 b/s
Count of elements        : 1061
Stream size          : 29.8 KiB (0%)
Title            : Japanese
Language           : Japanese
Default            : No
Forced           : No

Text #15
ID             : 17
Format           : UTF-8
Codec ID           : S_TEXT/UTF8
Codec ID/Info          : UTF-8 Plain Text
Duration           : 2 h 11 min
Bit rate           : 36 b/s
Count of elements        : 1133
Stream size          : 34.7 KiB (0%)
Title            : Korean
Language           : Korean
Default            : No
Forced           : No

Text #16
ID             : 18
Format           : UTF-8
Codec ID           : S_TEXT/UTF8
Codec ID/Info          : UTF-8 Plain Text
Duration           : 2 h 11 min
Bit rate           : 33 b/s
Count of elements        : 1133
Stream size          : 31.8 KiB (0%)
Title            : Norwegian
Language           : Norwegian
Default            : No
Forced           : No

Text #17
ID             : 19
Format           : UTF-8
Codec ID           : S_TEXT/UTF8
Codec ID/Info          : UTF-8 Plain Text
Duration           : 2 h 11 min
Bit rate           : 36 b/s
Count of elements        : 1127
Stream size          : 34.8 KiB (0%)
Title            : Brazilian Portuguese
Language           : Portuguese
Default            : No
Forced           : No

Text #18
ID             : 20
Format           : UTF-8
Codec ID           : S_TEXT/UTF8
Codec ID/Info          : UTF-8 Plain Text
Duration           : 2 h 11 min
Bit rate           : 35 b/s
Count of elements        : 1112
Stream size          : 34.0 KiB (0%)
Title            : Portuguese
Language           : Portuguese
Default            : No
Forced           : No

Text #19
ID             : 21
Format           : UTF-8
Codec ID           : S_TEXT/UTF8
Codec ID/Info          : UTF-8 Plain Text
Duration           : 2 h 11 min
Bit rate           : 33 b/s
Count of elements        : 1122
Stream size          : 32.2 KiB (0%)
Title            : European Spanish
Language           : Spanish
Default            : No
Forced           : No

Text #20
ID             : 22
Format           : UTF-8
Codec ID           : S_TEXT/UTF8
Codec ID/Info          : UTF-8 Plain Text
Duration           : 2 h 11 min
Bit rate           : 36 b/s
Count of elements        : 1127
Stream size          : 35.4 KiB (0%)
Title            : Spanish
Language           : Spanish
Default            : No
Forced           : No

Text #21
ID             : 23
Format           : UTF-8
Codec ID           : S_TEXT/UTF8
Codec ID/Info          : UTF-8 Plain Text
Duration           : 2 h 11 min
Bit rate           : 30 b/s
Count of elements        : 854
Stream size          : 29.3 KiB (0%)
Title            : Swedish
Language           : Swedish
Default            : No
Forced           : No

Text #22
ID             : 24
Format           : UTF-8
Codec ID           : S_TEXT/UTF8
Codec ID/Info          : UTF-8 Plain Text
Duration           : 2 h 10 min
Bit rate           : 28 b/s
Count of elements        : 1142
Stream size          : 27.0 KiB (0%)
Title            : Mandarin (Guoyu)
Language           : Chinese
Default            : No
Forced           : No[/code]





                                                                  
                                                                                                                                                                                                                                                                                 

本帖子中包含更多资源

您需要 登录 才可以下载或查看,没有帐号?立即注册

x
回复

使用道具 举报

您需要登录后才可以回帖 登录 | 立即注册

本版积分规则

4k蓝光原盘高清论坛

GMT+8, 2022-1-20 15:02 , Processed in 0.072860 second(s), 27 queries .

Powered by Discuz! X3.4

Copyright © 2001-2021, Tencent Cloud.

快速回复 返回顶部 返回列表