请选择 进入手机版 | 继续访问电脑版

4k蓝光原盘高清论坛

 找回密码
 立即注册
搜索
热搜: 活动 交友 discuz
查看: 56|回复: 0

007:无暇赴死/007:没空去死 No.Time.To.Die.2021.2160p.WEBRip.x265.10bit.SDR.DDP5.1 ...

[复制链接]

988

主题

988

帖子

2964

积分

超级版主

Rank: 8Rank: 8

积分
2964
发表于 2021-11-11 11:51:15 | 显示全部楼层 |阅读模式
007:无暇赴死/007:没空去死 No.Time.To.Die.2021.2160p.WEBRip.x265.10bit.SDR.DDP5.1.Atmos-S                                                                                                                                                                              -->
[quote]帖子完整标题:007:无暇赴死/007:没空去死 No.Time.To.Die.2021.2160p.WEBRip.x265.10bit.SDR.DDP5.1.Atmos-SWTYBLZ 22.99GB[/code]





◎译  名 007:无暇赴死/007:没空去死(豆友译名)/007:生死交战(台)/007:生死有时(港)/007:间不容死/James Bond 25/Never Dream of Dying/Shatterhand/邦德25
◎片  名 No Time to Die
◎年  代 2021
◎产  地 英国,美国
◎类  别 动作 / 惊悚 / 冒险
◎语  言 英语,法语,意大利语,俄语,西班牙语
◎上映日期 2021-09-30(英国) / 2021-10-08(美国) / 2021-10-29(中国大陆)
◎豆瓣评分 6.9/10 from 117762 users
◎ 
◎片  长 164分钟
◎导  演 凯瑞·福永 Cary Fukunaga
◎编  剧 尼尔·珀维斯 Neal Purvis / 罗伯特·韦德 Robert Wade / 凯瑞·福永 Cary Fukunaga / 菲比·沃勒-布里奇 Phoebe Waller-Bridge / 伊恩·弗莱明 Ian Fleming
◎主  演 丹尼尔·克雷格 Daniel Craig
     拉米·马雷克 Rami Malek
     蕾雅·赛杜 Léa Seydoux
     安娜·德·阿玛斯 Ana de Armas
     拉什纳·林奇 Lashana Lynch
     拉尔夫·费因斯 Ralph Fiennes
     本·卫肖 Ben Whishaw
     丽莎-朵拉·桑尼 Lisa-Dorah Sonnet
     娜奥米·哈里斯 Naomie Harris
     罗里·金尼尔 Rory Kinnear
     杰弗里·怀特 Jeffrey Wright
     比利·马格努森 Billy Magnussen
     克里斯托弗·瓦尔兹 Christoph Waltz
     大卫·丹席克 David Dencik
     达利·本萨拉赫 Dali Benssalah
     休·丹尼斯 Hugh Dennis
     普莉安卡·伯福德 Priyanga Burford
     皮奥·阿马托 Pio Amato
     贾文?普林斯 Javone Prince
     Amy Morgan Amy Morgan
     洛德斯·法比尔斯 Lourdes Faberes
     菲利普·菲尔玛 Philip Philmar
     Raymond Waring Raymond Waring
     可可·萨姆纳 Coco Sumner
     戈登·亚历山大 Gordon Alexander
     戴维·奥拉瓦莱·阿印德 David Olawale Ayinde
     安德鲁·G·奥格尔比 Andrew G. Ogleby
     吉安尼·卡尔切蒂 Gianni Calchetti
     通恰伊·古奈什 Tuncay Gunes
     泰·赫尔利 Ty Hurley
     拉普洛斯·卡伦福佐斯 Lampros Kalfuntzos
     马里安·洛伦西克 Marian Lorencik
     朱利安·费罗 Julian Ferro

◎标  签 007 | 特工 | 动作 | 英国 | 2021 | 间谍 | 犯罪 | 系列

◎简  介

  世界局势波诡云谲,再度出山的邦德(丹尼尔·克雷格 饰)面临有史以来空前的危机,传奇特工007的故事在本片中达到高潮。新老角色集结亮相,蕾雅·赛杜回归,二度饰演邦女郎玛德琳。系列最恐怖反派萨芬(拉米·马雷克 饰)重磅登场,毫不留情地展示了自己狠辣的一面,不仅揭开了玛德琳身上隐藏的秘密,还酝酿着危及数百万人性命的阴谋,幽灵党的身影也似乎再次浮出水面。半路杀出的新00号特工(拉什纳·林奇 饰)与神秘女子(安娜·德·阿玛斯 饰)看似与邦德同阵作战,但其真实目的依然成谜。关乎邦德生死的新仇旧怨接踵而至,暗潮汹涌之下他能否拯救世界?

◎获奖情况

  第7届豆瓣电影年度榜单 ?(2020)
  最值得期待的外语电影(提名)
[quote]Video
ID             : 1
Format           : HEVC
Format/Info          : High Efficiency Video Coding
Format profile         : Main @High
Codec ID           : V_MPEGH/ISO/HEVC
Duration           : 2 h 43 min
Bit rate           : 19.3 Mb/s
Width            : 3 832 pixels
Height           : 1 596 pixels
Display aspect ratio       : 2.40:1
Frame rate mode        : Constant
Frame rate           : 23.976 (24000/1001/189150) FPS
Color space          : YUV
Chroma subsampling       : 4:2:0
Bit depth          : 10 bits
Bits/(Pixel*Frame)       : 0.132
Stream size          : 22.0 GiB (96%)
Writing library        : x265 3.0ed72af837053:[Windows][GCC 8.2.0][64 bit] 10bit
Encoding settings        : cpuid=1111039 / frame-threads=6 / numa-pools=40 / wpp / no-pmode / no-pme / no-psnr / no-ssim / log-level=2 / input-csp=1 / input-res=3832x1596 / interlace=0 / total-frames=235056 / level-idc=51 / high-tier=1 / uhd-bd=0 / ref=3 / no-allow-non-conformance / repeat-headers / annexb / aud / hrd / info / hash=0 / no-temporal-layers / no-open-gop / min-keyint=1 / keyint=24 / gop-lookahead=0 / bframes=4 / b-adapt=2 / b-pyramid / bframe-bias=0 / rc-lookahead=25 / lookahead-slices=4 / scenecut=40 / radl=0 / no-splice / no-intra-refresh / ctu=64 / min-cu-size=8 / no-rect / no-amp / max-tu-size=32 / tu-inter-depth=1 / tu-intra-depth=1 / limit-tu=0 / rdoq-level=0 / dynamic-rd=0.00 / no-ssim-rd / signhide / no-tskip / nr-intra=0 / nr-inter=0 / no-constrained-intra / strong-intra-smoothing / max-merge=2 / limit-refs=3 / no-limit-modes / me=1 / subme=2 / merange=57 / temporal-mvp / weightp / no-weightb / no-analyze-src-pics / deblock=0:0 / no-sao / no-sao-non-deblock / rd=3 / no-early-skip / rskip / no-fast-intra / no-tskip-fast / no-cu-lossless / no-b-intra / no-splitrd-skip / rdpenalty=0 / psy-rd=2.00 / psy-rdoq=0.00 / no-rd-refine / no-lossless / cbqpoffs=0 / crqpoffs=0 / rc=crf / crf=16.0 / qcomp=0.60 / qpstep=4 / stats-write=0 / stats-read=0 / vbv-maxrate=160000 / vbv-bufsize=160000 / vbv-init=0.9 / crf-max=0.0 / crf-min=0.0 / ipratio=1.40 / pbratio=1.30 / aq-mode=1 / aq-strength=1.00 / cutree / zone-count=0 / no-strict-cbr / qg-size=32 / no-rc-grain / qpmax=69 / qpmin=0 / no-const-vbv / sar=1 / overscan=0 / videoformat=5 / range=0 / colorprim=2 / transfer=2 / colormatrix=2 / chromaloc=0 / display-window=0 / max-cll=0,0 / min-luma=0 / max-luma=1023 / log2-max-poc-lsb=8 / vui-timing-info / vui-hrd-info / slices=1 / opt-qp-pps / opt-ref-list-length-pps / no-multi-pass-opt-rps / scenecut-bias=0.05 / no-opt-cu-delta-qp / no-aq-motion / no-hdr / no-hdr-opt / no-dhdr10-opt / no-idr-recovery-sei / analysis-reuse-level=5 / scale-factor=0 / refine-intra=0 / refine-inter=0 / refine-mv=0 / refine-ctu-distortion=0 / no-limit-sao / ctu-info=0 / no-lowpass-dct / refine-analysis-type=0 / copy-pic=1 / max-ausize-factor=1.0 / no-dynamic-refine / no-single-sei / no-hevc-aq / qp-adaptation-range=1.00
Default            : Yes
Forced           : No

Audio
ID             : 2
Format           : E-AC-3 JOC
Format/Info          : Enhanced AC-3 with Joint Object Coding
Commercial name        : Dolby Digital Plus with Dolby Atmos
Codec ID           : A_EAC3
Duration           : 2 h 43 min
Bit rate mode          : Constant
Bit rate           : 768 kb/s
Channel(s)           : 6 channels
Channel layout         : L R C LFE Ls Rs
Sampling rate          : 48.0 kHz
Frame rate           : 31.250 FPS (1536 SPF)
Compression mode         : Lossy
Stream size          : 898 MiB (4%)
Title            : DDP 5.1 Atmos
Language           : English
Service kind         : Complete Main
Default            : No
Forced           : No
Complexity index         : 16
Number of dynamic objects      : 15
Bed channel count        : 1 channel
Bed channel configuration      : LFE

Text #1
ID             : 3
Format           : UTF-8
Codec ID           : S_TEXT/UTF8
Codec ID/Info          : UTF-8 Plain Text
Duration           : 2 h 15 min
Bit rate           : 1 b/s
Count of elements        : 55
Stream size          : 1.19 KiB (0%)
Title            : Forced
Language           : English
Default            : No
Forced           : Yes

Text #2
ID             : 4
Format           : UTF-8
Codec ID           : S_TEXT/UTF8
Codec ID/Info          : UTF-8 Plain Text
Duration           : 2 h 35 min
Bit rate           : 42 b/s
Count of elements        : 1671
Stream size          : 48.4 KiB (0%)
Language           : English
Default            : Yes
Forced           : No

Text #3
ID             : 5
Format           : UTF-8
Codec ID           : S_TEXT/UTF8
Codec ID/Info          : UTF-8 Plain Text
Duration           : 2 h 40 min
Bit rate           : 52 b/s
Count of elements        : 2136
Stream size          : 61.1 KiB (0%)
Title            : SDH
Language           : English
Default            : No
Forced           : No

Text #4
ID             : 6
Format           : UTF-8
Codec ID           : S_TEXT/UTF8
Codec ID/Info          : UTF-8 Plain Text
Duration           : 2 h 42 min
Bit rate           : 39 b/s
Count of elements        : 1693
Stream size          : 46.7 KiB (0%)
Title            : Latin American
Language           : Spanish
Default            : No
Forced           : No

Text #5
ID             : 7
Format           : UTF-8
Codec ID           : S_TEXT/UTF8
Codec ID/Info          : UTF-8 Plain Text
Duration           : 2 h 39 min
Bit rate           : 33 b/s
Count of elements        : 1538
Stream size          : 38.7 KiB (0%)
Language           : French
Default            : No
Forced           : No

Text #6
ID             : 8
Format           : UTF-8
Codec ID           : S_TEXT/UTF8
Codec ID/Info          : UTF-8 Plain Text
Duration           : 2 h 42 min
Bit rate           : 37 b/s
Count of elements        : 1655
Stream size          : 44.8 KiB (0%)
Language           : Korean
Default            : No
Forced           : No

Menu
00:00:00.000         : en:Chapter 1
00:11:57.125         : en:Chapter 2
00:27:09.750         : en:Chapter 3
00:43:46.000         : en:Chapter 4
00:56:58.099         : en:Chapter 5
01:04:09.000         : en:Chapter 6
01:13:06.500         : en:Chapter 7
01:22:28.832         : en:Chapter 8
01:33:49.332         : en:Chapter 9
01:51:42.000         : en:Chapter 10
02:06:54.000         : en:Chapter 11
02:25:23.500         : en:Chapter 12
02:35:07.000         : en:Chapter 13[/code]





                                                                  
                                                                                                                                                                                                                                                                                 

本帖子中包含更多资源

您需要 登录 才可以下载或查看,没有帐号?立即注册

x
回复

使用道具 举报

您需要登录后才可以回帖 登录 | 立即注册

本版积分规则

4k蓝光原盘高清论坛

GMT+8, 2022-1-20 16:55 , Processed in 0.076167 second(s), 27 queries .

Powered by Discuz! X3.4

Copyright © 2001-2021, Tencent Cloud.

快速回复 返回顶部 返回列表