请选择 进入手机版 | 继续访问电脑版

4k蓝光原盘高清论坛

 找回密码
 立即注册
搜索
热搜: 活动 交友 discuz
查看: 11|回复: 0

八四年夏天/84那年夏天 Summer.of.84.2018.2160p.BluRay.REMUX.HEVC.DTS-HD.MA.5.1-FG ...

[复制链接]

887

主题

887

帖子

2661

积分

超级版主

Rank: 8Rank: 8

积分
2661
发表于 2021-11-7 12:38:17 | 显示全部楼层 |阅读模式
八四年夏天/84那年夏天 Summer.of.84.2018.2160p.BluRay.REMUX.HEVC.DTS-HD.MA.5.1-FGT 58.16GB                                                                                                                                                                              -->
[quote]帖子完整标题:八四年夏天/84那年夏天 Summer.of.84.2018.2160p.BluRay.REMUX.HEVC.DTS-HD.MA.5.1-FGT 58.16GB[/code]





◎译  名 八四年夏天/84那年夏天(台)
◎片  名 Summer of 84
◎年  代 2018
◎产  地 加拿大,美国
◎类  别 剧情 / 惊悚 / 恐怖
◎语  言 英语
◎上映日期 2018-01-22(圣丹斯电影节) / 2018-08-10(美国)
◎豆瓣评分 6.2/10 from 2979 users
◎ 
◎片  长 105分钟
◎导  演 弗朗索瓦·西玛德 Fran?ois Simard / 阿努克·惠斯塞尔 Anouk Whissell / 约恩-卡尔·惠斯塞尔 Yoann-Karl Whissell
◎编  剧 马特·莱斯利 Matt Leslie / 斯蒂芬·J·史密斯 Stephen J. Smith
◎主  演 格雷厄姆·维奇尔 Graham Verchere
     犹大·刘易斯 Judah Lewis
     凯勒布·埃默里 Caleb Emery
     科里·格鲁特-安德鲁 Cory Gruter-Andrew
     提拉·斯考比 Tiera Skovbye
     里奇·索莫 Rich Sommer
     贾森·加里-斯坦福德 Jason Gray-Stanford
     威廉·麦克唐纳 William MacDonald
     苏茜·卡斯蒂略 Susie Castillo
     马克·布兰登·瑞德 Mark Brandon Read
     肖娜·约翰尼森 Shauna Johannesen

◎标  签 惊悚 | 悬疑 | 犯罪 | 美国 | 恐怖 | 儿童 | 2018 | 剧情

◎简  介

  几个青春期的少年发现警察邻居是连环杀手,他们开始花时间监视这位邻居。但随着他们越来越接近发现真相,事情变得危险。
[quote]Video
ID             : 1
ID in the original source medium   : 4113 (0x1011)
Format           : HEVC
Format/Info          : High Efficiency Video Coding
Format profile         : Main @High
HDR format           : SMPTE ST 2086, HDR10 compatible
Codec ID           : V_MPEGH/ISO/HEVC
Duration           : 1 h 45 min
Bit rate           : 75.0 Mb/s
Width            : 3 840 pixels
Height           : 2 160 pixels
Display aspect ratio       : 16:9
Frame rate mode        : Constant
Frame rate           : 23.976 (24000/1001/189150) FPS
Color space          : YUV
Chroma subsampling       : 4:2:0 (Type 2)
Bit depth          : 10 bits
Bits/(Pixel*Frame)       : 0.377
Stream size          : 55.3 GiB (95%)
Writing library        : x265 3.5f0c1022b6:[Linux][GCC 8.3.0][64 bit] 10bit
Encoding settings        : cpuid=1111039 / frame-threads=6 / wpp / no-pmode / no-pme / no-psnr / no-ssim / log-level=2 / input-csp=1 / input-res=3840x2160 / interlace=0 / total-frames=0 / level-idc=51 / high-tier=1 / uhd-bd=1 / ref=4 / no-allow-non-conformance / repeat-headers / annexb / aud / hrd / info / hash=0 / no-temporal-layers / no-open-gop / min-keyint=1 / keyint=24 / gop-lookahead=0 / bframes=4 / b-adapt=2 / b-pyramid / bframe-bias=0 / rc-lookahead=25 / lookahead-slices=4 / scenecut=40 / hist-scenecut=0 / radl=0 / no-splice / no-intra-refresh / ctu=64 / min-cu-size=8 / rect / no-amp / max-tu-size=32 / tu-inter-depth=1 / tu-intra-depth=1 / limit-tu=0 / rdoq-level=2 / dynamic-rd=0.00 / no-ssim-rd / signhide / no-tskip / nr-intra=0 / nr-inter=0 / no-constrained-intra / strong-intra-smoothing / max-merge=3 / limit-refs=3 / limit-modes / me=3 / subme=3 / merange=57 / temporal-mvp / no-frame-dup / no-hme / weightp / no-weightb / no-analyze-src-pics / deblock=0:0 / sao / no-sao-non-deblock / rd=4 / selective-sao=4 / no-early-skip / rskip / no-fast-intra / no-tskip-fast / no-cu-lossless / no-b-intra / no-splitrd-skip / rdpenalty=0 / psy-rd=2.00 / psy-rdoq=1.00 / no-rd-refine / no-lossless / cbqpoffs=0 / crqpoffs=0 / rc=abr / bitrate=75000 / qcomp=0.60 / qpstep=4 / stats-write=0 / stats-read=2 / cplxblur=20.0 / qblur=0.5 / vbv-maxrate=99000 / vbv-bufsize=99000 / vbv-init=0.9 / min-vbv-fullness=50.0 / max-vbv-fullness=80.0 / ipratio=1.40 / pbratio=1.30 / aq-mode=2 / aq-strength=1.00 / cutree / zone-count=0 / no-strict-cbr / qg-size=32 / no-rc-grain / qpmax=69 / qpmin=0 / no-const-vbv / sar=1 / overscan=0 / videoformat=5 / range=0 / colorprim=9 / transfer=16 / colormatrix=9 / chromaloc=1 / chromaloc-top=2 / chromaloc-bottom=2 / display-window=0 / master-display=G(13250,34500)B(7500,3000)R(34000,16000)WP(15635,16450)L(10000000,1) / cll=0,0 / min-luma=0 / max-luma=1023 / log2-max-poc-lsb=8 / vui-timing-info / vui-hrd-info / slices=1 / no-opt-qp-pps / no-opt-ref-list-length-pps / no-multi-pass-opt-rps / scenecut-bias=0.05 / hist-threshold=0.03 / no-opt-cu-delta-qp / no-aq-motion / hdr10 / no-hdr10-opt / no-dhdr10-opt / no-idr-recovery-sei / analysis-reuse-level=0 / analysis-save-reuse-level=0 / analysis-load-reuse-level=0 / scale-factor=0 / refine-intra=0 / refine-inter=0 / refine-mv=1 / refine-ctu-distortion=0 / no-limit-sao / ctu-info=0 / no-lowpass-dct / refine-analysis-type=0 / copy-pic=1 / max-ausize-factor=1.0 / no-dynamic-refine / no-single-sei / no-hevc-aq / no-svt / no-field / qp-adaptation-range=1.00 / scenecut-aware-qp=0conformance-window-offsets / right=0 / bottom=0 / decoder-max-rate=0 / no-vbv-live-multi-pass
Language           : English
Default            : No
Forced           : No
Color range          : Limited
Color primaries        : BT.2020
Transfer characteristics     : PQ
Matrix coefficients        : BT.2020 non-constant
Mastering display color primaries  : Display P3
Mastering display luminance    : min: 0.0001 cd/m2, max: 1000 cd/m2
Original source medium       : Blu-ray

Audio #1
ID             : 2
ID in the original source medium   : 4352 (0x1100)
Format           : DTS XLL
Format/Info          : Digital Theater Systems
Commercial name        : DTS-HD Master Audio
Codec ID           : A_DTS
Duration           : 1 h 45 min
Bit rate mode          : Variable
Bit rate           : 2 896 kb/s
Channel(s)           : 6 channels
Channel layout         : C L R Ls Rs LFE
Sampling rate          : 48.0 kHz
Frame rate           : 93.750 FPS (512 SPF)
Bit depth          : 24 bits
Compression mode         : Lossless
Stream size          : 2.13 GiB (4%)
Title            : DTS-HD MA 5.1
Language           : English
Default            : Yes
Forced           : No
Original source medium       : Blu-ray

Audio #2
ID             : 3
Format           : AC-3
Format/Info          : Audio Coding 3
Commercial name        : Dolby Digital
Codec ID           : A_AC3
Duration           : 1 h 45 min
Bit rate mode          : Constant
Bit rate           : 640 kb/s
Channel(s)           : 6 channels
Channel layout         : L R C LFE Ls Rs
Sampling rate          : 48.0 kHz
Frame rate           : 31.250 FPS (1536 SPF)
Compression mode         : Lossy
Stream size          : 483 MiB (1%)
Title            : DD 5.1
Language           : English
Service kind         : Complete Main
Default            : No
Forced           : No

Audio #3
ID             : 4
ID in the original source medium   : 4353 (0x1101)
Format           : AC-3
Format/Info          : Audio Coding 3
Commercial name        : Dolby Digital
Codec ID           : A_AC3
Duration           : 1 h 45 min
Bit rate mode          : Constant
Bit rate           : 384 kb/s
Channel(s)           : 2 channels
Channel layout         : L R
Sampling rate          : 48.0 kHz
Frame rate           : 31.250 FPS (1536 SPF)
Compression mode         : Lossy
Stream size          : 290 MiB (0%)
Title            : DD 2.0
Language           : English
Service kind         : Commentary
Default            : No
Forced           : No
Original source medium       : Blu-ray

Text #1
ID             : 5
Format           : UTF-8
Codec ID           : S_TEXT/UTF8
Codec ID/Info          : UTF-8 Plain Text
Duration           : 1 h 40 min
Bit rate           : 55 b/s
Count of elements        : 1334
Stream size          : 40.9 KiB (0%)
Title            : SRT
Language           : English
Default            : Yes
Forced           : No

Text #2
ID             : 6
ID in the original source medium   : 4768 (0x12A0)
Format           : PGS
Muxing mode          : zlib
Codec ID           : S_HDMV/PGS
Codec ID/Info          : Picture based subtitle format used on BDs/HD-DVDs
Duration           : 1 h 41 min
Bit rate           : 41.7 kb/s
Count of elements        : 3029
Stream size          : 30.2 MiB (0%)
Language           : English
Default            : No
Forced           : No
Original source medium       : Blu-ray

Menu
00:00:00.000         : en:Chapter 01
00:12:30.207         : en:Chapter 02
00:27:31.024         : en:Chapter 03
00:42:29.505         : en:Chapter 04
00:59:17.929         : en:Chapter 05
01:06:24.522         : en:Chapter 06
01:15:02.331         : en:Chapter 07
01:28:42.900         : en:Chapter 08
01:41:04.391         : en:Chapter 09[/code]





                                                                  
                                                                                                                                                                                                                                                                                 

本帖子中包含更多资源

您需要 登录 才可以下载或查看,没有帐号?立即注册

x
回复

使用道具 举报

您需要登录后才可以回帖 登录 | 立即注册

本版积分规则

4k蓝光原盘高清论坛

GMT+8, 2021-11-27 16:58 , Processed in 0.086875 second(s), 28 queries .

Powered by Discuz! X3.4

Copyright © 2001-2021, Tencent Cloud.

快速回复 返回顶部 返回列表