请选择 进入手机版 | 继续访问电脑版

4k蓝光原盘高清论坛

 找回密码
 立即注册
搜索
热搜: 活动 交友 discuz
查看: 60|回复: 0

戴高乐 De.Gaulle.2020.FRENCH.2160p.WEB-DL.x265.10bit.SDR.DTS-HD.MA.5.1-NOGRP 11. ..

[复制链接]

988

主题

988

帖子

2964

积分

超级版主

Rank: 8Rank: 8

积分
2964
发表于 2021-10-24 10:53:02 | 显示全部楼层 |阅读模式
戴高乐 De.Gaulle.2020.FRENCH.2160p.WEB-DL.x265.10bit.SDR.DTS-HD.MA.5.1-NOGRP 11.39G                                                                                                                                                                              -->
[quote]帖子完整标题:戴高乐 De.Gaulle.2020.FRENCH.2160p.WEB-DL.x265.10bit.SDR.DTS-HD.MA.5.1-NOGRP 11.39GB[/code]





◎译  名 戴高乐
◎片  名 De Gaulle
◎年  代 2020
◎产  地 法国
◎类  别 传记 / 历史
◎语  言 法语
◎上映日期 2020-03-04(法国)
◎豆瓣评分 6.0/10 from 274 users
◎ 
◎片  长 107分钟
◎导  演 加布里埃尔·勒博明 Gabriel Le Bomin
◎编  剧 加布里埃尔·勒博明 Gabriel Le Bomin
◎主  演 朗贝尔·维尔森 Lambert Wilson
     伊莎贝尔·卡雷 Isabelle Carré
     安德鲁·比克内尔 Andrew Bicknell
     奥利维埃·古尔梅 Olivier Gourmet
     索菲·昆汀 Sophie Quinton
     尼古拉斯·罗宾 Nicolas Robin
     维克多·贝尔蒙多 Victor Belmondo
     埃弗琳·布尔 Evelyne Buyle
     蒂姆·哈德森 Tim Hudson
     凯斯特·洛夫莱斯 Kester Lovelace
     德里克·西蒙·罗宾 Derek Simon Robin
     凯瑟琳·蒙切特 Catherine Mouchet

◎标  签 法国 | 传记 | 二战 | 历史 | 传记片 | 2020 | 法国电影 | 战争

◎简  介

  1940年6月,巴黎,戴高乐夫妇面临法国的军事和上的崩溃,戴高乐选择奔赴伦敦继续抗战,而他的妻子伊冯则与三个孩子一起踏上远赴埃及之路。

◎获奖情况

  第46届法国凯撒电影奖 ?(2021)
  最佳男主角(提名) 朗贝尔·维尔森
  最佳服装(提名)
  最佳布景(提名)
[quote]Video
ID             : 1
Format           : HEVC
Format/Info          : High Efficiency Video Coding
Format profile         : Main @High
Codec ID           : V_MPEGH/ISO/HEVC
Duration           : 1 h 48 min
Bit rate           : 12.0 Mb/s
Width            : 3 836 pixels
Height           : 1 604 pixels
Display aspect ratio       : 2.40:1
Frame rate mode        : Constant
Frame rate           : 24.000 FPS
Color space          : YUV
Chroma subsampling       : 4:2:0
Bit depth          : 10 bits
Bits/(Pixel*Frame)       : 0.081
Stream size          : 9.15 GiB (80%)
Default            : Yes
Forced           : No
Color range          : Limited
Color primaries        : BT.709
Transfer characteristics     : BT.709
Matrix coefficients        : BT.709

Audio #1
ID             : 2
Format           : DTS XLL
Format/Info          : Digital Theater Systems
Commercial name        : DTS-HD Master Audio
Codec ID           : A_DTS
Duration           : 1 h 48 min
Bit rate mode          : Variable
Bit rate           : 2 545 kb/s
Channel(s)           : 6 channels
Channel layout         : C L R Ls Rs LFE
Sampling rate          : 48.0 kHz
Frame rate           : 93.750 FPS (512 SPF)
Bit depth          : 24 bits
Compression mode         : Lossless
Stream size          : 1.94 GiB (17%)
Title            : DTS-HD MA 5.1
Language           : French
Default            : Yes
Forced           : No

Audio #2
ID             : 3
Format           : AC-3
Format/Info          : Audio Coding 3
Commercial name        : Dolby Digital
Codec ID           : A_AC3
Duration           : 1 h 48 min
Bit rate mode          : Constant
Bit rate           : 384 kb/s
Channel(s)           : 6 channels
Channel layout         : L R C LFE Ls Rs
Sampling rate          : 48.0 kHz
Frame rate           : 31.250 FPS (1536 SPF)
Compression mode         : Lossy
Stream size          : 299 MiB (3%)
Title            : DD 5.1
Language           : French
Service kind         : Complete Main
Default            : No
Forced           : No

Text #1
ID             : 4
Format           : UTF-8
Codec ID           : S_TEXT/UTF8
Codec ID/Info          : UTF-8 Plain Text
Duration           : 1 h 47 min
Bit rate           : 53 b/s
Count of elements        : 1177
Stream size          : 42.2 KiB (0%)
Title            : English
Language           : English
Default            : Yes
Forced           : Yes

Text #2
ID             : 5
Format           : UTF-8
Codec ID           : S_TEXT/UTF8
Codec ID/Info          : UTF-8 Plain Text
Duration           : 1 h 48 min
Bit rate           : 63 b/s
Count of elements        : 1559
Stream size          : 50.5 KiB (0%)
Title            : French (SDH)
Language           : French
Default            : No
Forced           : No

Text #3
ID             : 6
Format           : PGS
Muxing mode          : zlib
Codec ID           : S_HDMV/PGS
Codec ID/Info          : Picture based subtitle format used on BDs/HD-DVDs
Duration           : 1 h 48 min
Bit rate           : 34.8 kb/s
Count of elements        : 3116
Stream size          : 27.0 MiB (0%)
Language           : French
Default            : No
Forced           : No

Menu
00:00:00.000         : en:Chapter 01
00:09:17.208         : en:Chapter 02
00:19:37.958         : en:Chapter 03
00:29:47.875         : en:Chapter 04
00:39:59.291         : en:Chapter 05
00:49:58.583         : en:Chapter 06
00:59:42.041         : en:Chapter 07
01:09:14.375         : en:Chapter 08
01:21:24.458         : en:Chapter 09
01:29:48.791         : en:Chapter 10
01:38:38.458         : en:Chapter 11
01:45:04.708         : en:Chapter 12[/code]





                                                                  
                                                                                                                                                                                                                                                                                 

本帖子中包含更多资源

您需要 登录 才可以下载或查看,没有帐号?立即注册

x
回复

使用道具 举报

您需要登录后才可以回帖 登录 | 立即注册

本版积分规则

4k蓝光原盘高清论坛

GMT+8, 2022-1-20 15:32 , Processed in 0.075096 second(s), 27 queries .

Powered by Discuz! X3.4

Copyright © 2001-2021, Tencent Cloud.

快速回复 返回顶部 返回列表